<?xml version="1.0" standalone="no"?>
<!DOCTYPE svg PUBLIC "-//W3C//DTD SVG 1.1//EN" "http://www.w3.org/Graphics/SVG/1.1/DTD/svg11.dtd" >
<svg xmlns="http://www.w3.org/2000/svg">
<metadata></metadata>
<defs>
<font id="grundschriftregular" horiz-adv-x="28" >
<font-face units-per-em="2048" ascent="1638" descent="-410" />
<missing-glyph horiz-adv-x="1230" />
<glyph horiz-adv-x="0" />
<glyph unicode="&#xd;" horiz-adv-x="1230" />
<glyph horiz-adv-x="0" />
<glyph horiz-adv-x="0" />
<glyph unicode=" "  horiz-adv-x="1230" />
<glyph unicode="&#x09;" horiz-adv-x="1230" />
<glyph unicode="&#xa0;" horiz-adv-x="1230" />
<glyph unicode="!" horiz-adv-x="731" d="M272 135q0 -16 12.5 -36.5t31 -38t38 -30t35.5 -12.5q25 10 47.5 30t22.5 48q0 25 -15.5 40.5t-39 24.5t-48 13t-43.5 4q-25 0 -33 -10t-8 -33zM288 614.5q3 63.5 3 98.5q0 25 3 95.5t7 161.5t11 191.5t14.5 186.5t16.5 144t17 67q14 10 28.5 18t29.5 18h10q23 0 36 -11 t20.5 -27.5t9.5 -36t2 -37.5q0 -123 -19.5 -248t-19.5 -248v-229q0 -53 7 -104.5t7 -104.5q0 -39 -7 -79t-15 -77q-8 -12 -22.5 -30.5t-29.5 -26.5q-51 0 -74.5 46t-30.5 107.5t-4 125z" />
<glyph unicode="&#x22;" horiz-adv-x="761" d="M135 1480.5v43.5q0 33 7.5 65.5t29.5 57.5v2q16 16 38.5 33.5t47.5 17.5q29 0 29 -33q0 -27 -2 -77t-12.5 -99t-31 -86t-55.5 -37q-23 0 -33 18.5t-14 43t-4 51zM483 1472.5v43.5q0 35 7.5 70.5t31.5 62.5v4q16 16 38 32.5t46 16.5q29 0 29 -33q0 -27 -2 -79t-12.5 -104 t-31 -91t-54.5 -39q-23 0 -33 19.5t-14.5 45t-4.5 52z" />
<glyph unicode="#" horiz-adv-x="2064" d="M469 553v115h213l72 356h-285v119h309l80 383h115l-80 -383h401l82 383h115l-80 -383h188v-119h-210l-76 -356h286v-115h-311l-78 -383h-114l75 383h-397l-84 -383h-112l77 383h-186zM795 668h403l74 356h-402z" />
<glyph unicode="$" horiz-adv-x="1333" d="M383 735q0 61 22.5 113.5t62.5 91.5t92 61.5t114 22.5q61 0 114.5 -22.5t91.5 -60.5t60.5 -91.5t22.5 -114.5t-22.5 -113.5t-61.5 -92.5t-91.5 -62.5t-113.5 -22.5q-59 0 -112.5 22.5t-93.5 62.5t-62.5 93.5t-22.5 112.5z" />
<glyph unicode="%" horiz-adv-x="2158" d="M504 1212v19q4 10 8 20.5t4 20.5q-4 0 -4 10t3 21.5t6 22.5t3 15l6 13q14 2 19.5 15t7.5 26l6 -25q12 20 36 44t50 24q6 0 6 -2h11l2 10q20 6 47 6l2 4l10 -6q10 2 19.5 8t15.5 12l2 -4q8 0 11 1t7 -9h17l6 4q6 2 13 2h13l5 -8h28l13 -6q23 6 43 -9.5t43 -23.5l4 -14 l12 -2l14 -17l-4 -10q4 -4 8 -4h2q0 6 -4 10q2 -4 5.5 -16t5.5 -25.5t4 -28t4 -22.5q-4 0 -3 -3t-3 -5q6 -41 6 -76l22 -10q-2 -2 -12 -8q6 -10 5 -27.5t-5 -36t-11 -35t-14 -24.5l15 -8q-10 -18 -20.5 -34.5t-26.5 -31.5q-10 -4 -19.5 -7t-19.5 -3l-8 -6q0 -10 -2.5 -12.5 t-10.5 -8.5q-8 -14 -23.5 -22t-31.5 -8h-12q-2 4 -6.5 9t-8.5 9l-2 -18q-2 -4 -8 -4h-6v16q-12 -12 -21 -16h-10l-8 2q-16 -4 -23.5 -3t-17.5 15l-12 -6h-21q-14 8 -26.5 16t-24.5 19q-4 8 -8 15t-12 11h-4q-16 10 -27.5 31.5t-22.5 38.5l-14 6l-6 12h-4q-4 6 -11.5 26.5 t-14.5 44t-12 43t-5 23.5zM563 1194q0 -25 12.5 -63.5t28.5 -55.5q0 -6 9.5 -16t19.5 -21.5t20.5 -20.5t14.5 -13q8 -2 20 -7.5t21 -3.5l20 -10q10 4 33.5 8t40.5 8l14 11q6 10 8 12l13 -2q4 8 10 14t12 13l10 4q2 6 9.5 17t14.5 23.5t12 23.5t5 15v82h-6q-2 23 -1 34t-5 34 l-6 8v12q-8 8 -8 23h-13v6q-6 4 -17 8t-23.5 7.5t-21.5 7.5t-11 8l-21 10l-2 -2l-12 2q-8 0 -21 -8q2 -6 -5 -7t-7 5l-10 2l-12 -8q-12 0 -27 10l-14 -16q-4 0 -10.5 2t-10.5 4q-6 -8 -15 -14.5t-18.5 -12.5t-15.5 -14t-6 -21l-6 -10l-13 -8q-6 -20 -8 -40t-2 -40zM594 162 q-2 20 3 31.5t11 29.5q10 10 19.5 20.5t19.5 20.5q29 12 39 41q23 23 59.5 72t74.5 103.5t70 106.5t48 81q8 16 17.5 40.5t25.5 32.5l12 21l2 20q12 16 33 23l2 35q39 45 66.5 98t68.5 96v28.5t4 29.5q12 14 21.5 24t18 19.5t16.5 21.5t14 33q8 4 8 10q39 39 71 81t58 89 q23 16 52.5 38t44.5 44h10q29 0 45 -3t33 -32v-16v-10l-29 -27q-2 -6 -26.5 -41t-55.5 -77t-57.5 -76.5t-30.5 -36.5q0 -6 -26.5 -46t-60.5 -88.5t-65.5 -91.5t-40.5 -55q-4 4 -4 -3v-9l-6 -11l4 -14q-35 -45 -68.5 -90t-66.5 -92q-4 -16 -16.5 -40t-10.5 -34 q-12 -20 -43.5 -68.5t-65.5 -98.5t-64.5 -89t-43.5 -39q-25 -41 -44 -79t-72 -54l-13 -10q-10 0 -10 10q-10 4 -20.5 6t-20.5 4v-4zM1165 352v99q0 23 10.5 45t22.5 41l-8 8v2q12 18 23.5 41.5t25.5 46t33.5 38t48.5 15.5q0 6 2 6h35t37 6l10 -4q20 16 29.5 20.5t31.5 4.5 q23 0 36.5 -18.5t31.5 -26.5l12 14q4 2 8.5 -1t-0.5 -7l13 -6q6 2 14 -1t14 -5l19 -17l2 -6l16 -12l66 -232l-4 -36q-8 -10 -25 -15q0 -16 -9 -28.5t-9 -28.5q0 -6 4 -14q-8 -8 -16.5 -17.5t-18.5 -13.5q-16 -16 -39 -19q-31 -41 -77 -47t-93 -6q-18 0 -38.5 2t-31.5 23 l-26 -4l-8 -11l-7 5q0 2 3.5 2t3.5 2l-4 6q-10 0 -18.5 2t-18.5 6l-13 18v9l-6 8q-8 2 -15 4t-11 10l12 12l-19 7l-2 8q-4 2 -16 12t-12 14l8 23q-14 0 -27 16zM1225 387q4 -10 6 -20.5t4 -20.5l12 -14l4 -13l9 -6v-6l12 -14l10 -2q8 -6 12 -19q12 0 23 -6h24v-6l15 4 q8 -4 14 -8t14 -4q33 0 54.5 8t40 20.5t37 27t43.5 24.5q4 10 10 18t12 19l12 6l2 22q4 6 9.5 14.5t5.5 16.5l-17 53l-8 11v10l2 14q-8 -6 -8 3v13l-10 5q-10 0 -17 2q-10 8 -18 24h-8l-6 8l-2 15l-19 2l-12 18q-16 4 -35.5 11.5t-36.5 7.5q-6 0 -14 -4l-4 -7h-21 q-43 -33 -69.5 -49t-42 -35.5t-24.5 -50t-15 -92.5z" />
<glyph unicode="&#x26;" horiz-adv-x="1435" d="M188 369q0 74 24 142.5t63.5 128.5t94 110.5t115.5 85.5q-39 51 -75.5 96t-64.5 91t-44 99.5t-16 122.5q0 72 22.5 133.5t63.5 106.5t100 70.5t133 25.5q25 0 61.5 -6t74.5 -17.5t69 -30t41 -42.5q61 -57 74.5 -121t13.5 -141q0 -70 -23.5 -127.5t-62.5 -104.5t-89 -88 t-101 -80l272 -352l6 18q41 47 63.5 103.5t38.5 116.5l88 -35q-10 -43 -19 -83t-21.5 -78t-29 -75t-40.5 -76l201 -253l-134 -25l-141 160q-20 -37 -51 -59.5t-55 -55.5q-68 -37 -112 -62.5t-85 -42t-92 -23.5t-133 -7q-10 0 -18.5 5t-16.5 9q-59 27 -97 64t-59.5 83t-30 99 t-8.5 115zM315 369q0 -37 12.5 -81t36 -81t57.5 -61.5t77 -24.5q59 0 112.5 19.5t99.5 52t85 74.5t71 87l-309 387l10 -10q-27 -18 -63.5 -36.5t-59.5 -41.5q-20 -23 -42.5 -58.5t-42 -75.5t-32 -80t-12.5 -70zM395 1251q0 -59 15.5 -102t42 -81t58.5 -74t67 -76 q45 29 90 58.5t81.5 65t59 81.5t22.5 108h9q0 45 -16.5 87t-45 72.5t-67.5 49t-86 18.5q-41 0 -82 -16.5t-74 -44t-53.5 -65.5t-20.5 -81z" />
<glyph unicode="'" horiz-adv-x="497" d="M135 1480.5v43.5q0 33 7.5 65.5t29.5 57.5v2q16 16 38.5 33.5t47.5 17.5q29 0 29 -33q0 -27 -2 -77t-12.5 -99t-31 -86t-55.5 -37q-23 0 -33 18.5t-14 43t-4 51z" />
<glyph unicode="(" horiz-adv-x="1046" d="M285 1077q0 104 23.5 204.5t43.5 201.5q4 23 13.5 42t18.5 38.5t16.5 40t9.5 45.5q23 23 38 43t33 43l8 8q12 31 51.5 57.5t87.5 47t94 34.5t75 19l22 -9q10 -18 17 -34q0 -41 -8.5 -58.5t-24 -26t-35.5 -16.5t-45 -28l-14 2q-23 -10 -47.5 -16.5t-49.5 -16.5 q-6 -10 -15 -22.5t-13 -22.5q-10 -4 -18.5 -9.5t-18.5 -11.5l-4 -22q-10 -10 -17.5 -28.5t-13.5 -33.5q-37 -82 -53.5 -128t-23.5 -83t-10 -80t-9 -118q-2 -20 -10.5 -41t-8.5 -41q0 -29 13 -43q-2 -35 3 -65.5t5 -63.5q0 -20 -2 -37t2 -37q20 -29 30.5 -95.5t19.5 -145 t21.5 -154.5t34.5 -125q4 -10 26.5 -44t48.5 -73t48.5 -70.5t28.5 -35.5q25 -18 42 -36t46 -34l10 -12q2 -14 10 -33l25 -23l10 -26q10 -4 22.5 -16.5t18.5 -22.5q-2 -8 -2 -16.5v-16.5l6 -8v-2q-25 -10 -47 -10h-6q-115 43 -198 122.5t-141 185t-95 228.5t-57.5 249 t-27.5 250t-7 230z" />
<glyph unicode=")" horiz-adv-x="995" d="M176 1839q0 16 2 26.5t12 26.5l23 9q96 -16 149.5 -39t88 -53.5t67.5 -73.5t88 -99q2 -20 5 -39.5t14 -35.5q6 -10 15 -45t18.5 -82.5t18.5 -99.5t16 -98t11.5 -81t4.5 -45q0 -49 -4.5 -141t-11.5 -192.5t-17 -188.5t-23 -131q-2 -8 -14 -46t-29.5 -92.5t-38 -116 t-39 -113.5t-32 -88t-17.5 -40q-41 -37 -81 -66.5t-89 -56.5q-12 -6 -39 -23.5t-41 -17.5q-20 0 -45 10q-2 2 0 5.5t5 5.5v16t-3 16q10 10 18.5 21.5t22.5 17.5q6 16 13.5 26.5t21.5 23.5l13 32q16 20 45.5 42t50.5 40q14 14 29.5 46t30 67t27.5 69.5t23 55.5 q27 49 38.5 112.5t16.5 130t9 132t14 122.5q4 16 9.5 29.5t5.5 32.5q0 41 5 84t1 86q10 14 10 29q0 41 -10.5 123.5t-27.5 170t-39.5 159t-45.5 93.5l-6 21q-18 18 -35 20l-29 47l-47 31q-14 4 -27.5 7t-25.5 10l-14 -2q-18 16 -38 24t-36 17.5t-26.5 23.5t-10.5 45z" />
<glyph unicode="*" horiz-adv-x="1333" d="M451 735q0 23 2 48.5t10 45.5q6 16 33.5 40t60.5 44.5t65.5 35t51.5 14.5q45 0 86 -18.5t72.5 -50.5t50 -73t18.5 -86q0 -98 -64.5 -163.5t-162.5 -65.5q-33 0 -72 23.5t-72.5 58.5t-56 74.5t-22.5 72.5z" />
<glyph unicode="+" horiz-adv-x="1906" d="M365 762q-4 31 12 62.5t45 31.5q23 0 42 4t40 4q16 0 34.5 -4t34.5 -4q47 0 84 7t84 7q31 0 66 -10q20 8 26.5 27.5t5.5 44t-3 49.5t4 43q-4 66 -2 138.5t6 137.5q12 10 33.5 22.5t37.5 12.5q6 0 13.5 -2t13.5 -4q23 -18 35 -32.5t12 -45.5q0 -90 -5 -177t-5 -173 q0 -35 26.5 -40t55.5 -5h17.5t36 1t67.5 3t110 4q47 0 81 -3t69 -42q-2 -31 -14.5 -52.5t-12.5 -31.5q-10 -8 -22.5 -16t-24.5 -14l-37 -3q-14 0 -65.5 1.5t-107.5 3.5t-102 4t-52 4l-19 -6q-10 -31 2 -76q-8 -72 -7 -143.5t1 -143.5q0 -23 1 -50.5t-6 -53t-24.5 -43 t-54.5 -17.5q-10 0 -23.5 6.5t-17.5 16.5q-10 10 -18.5 21.5t-8.5 25.5q0 31 1 61.5t6 59.5q-10 47 -6 99t4 99q0 23 2 44.5t2 43.5v34t-7 34q-35 6 -73.5 -1t-67.5 -3l-203 -4h-35.5t-33.5 -10q-14 2 -19.5 9t-8.5 15t-8 16.5t-17 12.5z" />
<glyph unicode="," horiz-adv-x="557" d="M176 -141q0 25 13.5 59.5t33 70.5t41 66.5t37.5 48.5v5q16 16 37.5 32.5t48.5 16.5q29 0 29 -33q0 -27 -18.5 -79t-48.5 -105.5t-63.5 -93.5t-64.5 -40q-23 0 -34 14.5t-11 37.5z" />
<glyph unicode="-" horiz-adv-x="1294" d="M229 723q0 14 7.5 26.5t13.5 24.5q16 12 28.5 26.5t34.5 16.5q86 8 173 18.5t173 10.5q39 0 78 -4t78 -4q27 0 52.5 6t52.5 6q4 0 17 -5t17 -7q10 -20 15.5 -42t17.5 -40q-4 -12 -9 -24.5t-15 -20.5q-2 -10 -17.5 -18.5t-35 -14.5t-39 -9t-27.5 -3q-23 0 -41.5 6t-40.5 4 q-29 -2 -58.5 -6t-60.5 -4q-29 0 -73 1t-72 9q-39 -10 -78 -12t-80 -2q-18 0 -37.5 2t-38.5 -2l-24 18l-9 14z" />
<glyph unicode="." horiz-adv-x="653" d="M219 135q0 23 8.5 33t32.5 10q18 0 43 -3t48.5 -12t39 -24.5t15.5 -40.5q0 -29 -23 -49t-47 -31q-16 0 -35.5 12.5t-38 30t-31 38t-12.5 36.5z" />
<glyph unicode="/" horiz-adv-x="1527" d="M307 39q0 43 8.5 64.5t20.5 37t28.5 31.5t32.5 47q53 100 105.5 199.5t103.5 202.5q29 57 50.5 116.5t47 131t61.5 161.5t93 209q8 27 25.5 60.5t38 67.5t41 64.5t36.5 53.5q23 31 32 66.5t30 68.5q45 14 58.5 35.5t29.5 62.5q16 2 35.5 4t37 -1t29 -13t11.5 -35v-16 l-29 -15q-2 -10 -25.5 -54t-51.5 -95t-53.5 -96t-33.5 -54q-4 -18 -30.5 -76.5t-65.5 -136t-82 -163.5t-80 -162q-35 -84 -57.5 -160t-51.5 -162q-10 -29 -28.5 -60.5t-44.5 -45.5q-29 -43 -54.5 -90t-52.5 -94q-4 -2 -16 -33t-30.5 -67t-40 -65.5t-46.5 -29.5l-8 4z" />
<glyph unicode="0" horiz-adv-x="1554" d="M70 618q0 82 1 161t9 157t26.5 154.5t55.5 150.5l-4 -2q29 61 71.5 135t98 136.5t122 105.5t146.5 43q156 0 271.5 -73t191.5 -188.5t113.5 -256t37.5 -275.5q0 -78 -19.5 -172t-56 -189t-91 -183.5t-122 -157t-149.5 -109.5t-174 -41q-47 0 -91 18.5t-85 41.5 q-160 80 -256 220t-96 324zM203 770q0 -86 15 -194.5t56 -204t113 -160t184 -64.5q92 0 165 37t128.5 99.5t93 143.5t61 168t34 173t10.5 160q0 215 -84 360.5t-283 235.5l-2 -6q-96 4 -169.5 -29t-128 -90.5t-92.5 -134t-60.5 -160.5t-31.5 -171t-9 -163z" />
<glyph unicode="1" horiz-adv-x="1200" d="M41 1165q0 18 22.5 41t53 46.5t60.5 43t42 31.5q10 8 40 35t70 60.5t85 70.5t85 67.5t68.5 51t38.5 20.5q14 0 38 -9t43.5 -22.5t28.5 -32t-3 -36.5v-50.5t-4 -49.5q4 -20 4 -49v-52q0 -76 -10.5 -155.5t-2.5 -153.5l2 -82l-10 -334l-10 -20q-2 -53 2 -105.5t4 -105.5 v-207q0 -27 9.5 -54.5t9.5 -56.5v-4q-18 -20 -29.5 -26.5t-23 -8.5t-24 -2t-32.5 -8q-6 -16 -27 -16q-4 0 -6 4t-2 6q-14 20 -24.5 42t-10.5 48q0 25 2 95.5t4.5 161.5t5.5 194.5t5 194.5t3 158t-1 89q0 72 2 144.5t2 144.5q0 23 3 44t5 44l-16 35q-33 -6 -83 -42 t-100.5 -81t-92.5 -89t-58 -63q-16 -2 -29.5 -11t-29.5 -13l-7 -8h-2h-4l-90 59z" />
<glyph unicode="2" horiz-adv-x="1267" d="M59 1305q0 45 28 79.5t67 60t82 47t75 42.5q59 39 132 46t143 7q45 0 101 -28.5t103.5 -73.5t80 -102.5t32.5 -114.5q0 -35 -1 -80t-3 -80q0 -4 -15.5 -39t-34 -77t-34.5 -78.5t-20 -45.5q-47 -104 -93.5 -188t-97.5 -163t-109.5 -156.5t-127.5 -170.5q-6 -8 -11.5 -16 t-9.5 -18q4 -4 44 -6.5t97.5 -3.5t124 -1t126 1t103.5 2.5t56 1.5h35h-2q31 8 63.5 -3.5t63.5 -15.5l-33 -106q-86 -16 -192.5 -19.5t-192.5 -3.5q-117 0 -228.5 2t-228.5 -2q-6 0 -17 6t-15 10t-13.5 12.5t-9.5 16.5q0 31 45 102.5t112.5 169t145.5 214t145.5 236.5 t112.5 236.5t45 215.5q0 41 -19.5 80.5t-49 72.5t-65.5 52.5t-69 19.5q-63 0 -134.5 -36t-134 -80t-110 -80t-61.5 -36q-6 0 -11 11.5t-10.5 27t-7.5 30.5t-2 22z" />
<glyph unicode="3" horiz-adv-x="1320" d="M186 131q0 12 4.5 38t20.5 26q2 0 11 -6.5t18.5 -13.5t17.5 -14t12 -9q8 -6 32 -9.5t52.5 -4.5t54 -1h35.5q12 0 43 2t66 6.5t62.5 9.5t33.5 13q43 25 87 44t75 49t43 78t-6 130q-16 72 -61.5 113t-101.5 62.5t-117.5 31.5t-113 21.5t-84 28.5t-32.5 56q0 16 10 25.5 t25.5 18t36 18.5t43.5 28q102 23 175.5 74t113.5 112.5t45.5 127t-31.5 119.5q-55 84 -113.5 109.5t-109 23.5t-88 -18.5t-52.5 -16.5q-18 0 -26.5 -2t-13.5 -5t-11 -9.5t-25 -14.5q-14 0 -32.5 7t-35 18.5t-27.5 26t-11 30.5q0 27 34 50.5t78 39t87 24.5t61 9q49 0 91 4 t86 -2t91 -26.5t105 -69.5q12 -10 27.5 -39t28.5 -62.5t22.5 -64.5t9.5 -47q0 -14 -1 -48t-3 -71t-4 -70.5t-4 -48.5q-33 -37 -57.5 -68.5t-51.5 -57t-60.5 -48t-82.5 -43.5q61 -6 110 -18.5t88 -36t71 -62.5t60 -100l-2 -240q2 -63 -35.5 -126.5t-96 -114.5t-124 -82 t-114.5 -27q-59 4 -113.5 -4t-114.5 -8q-49 0 -83.5 4t-58.5 14.5t-38 31t-22 50.5q-8 20 -9 35z" />
<glyph unicode="4" horiz-adv-x="1320" d="M37 610q0 45 29.5 122t78 170t105.5 193.5t111.5 190.5t100.5 161t68 105q14 20 24.5 28.5t22 10.5t26.5 2t40 6l12 9q20 0 23.5 -24.5t3.5 -39.5q0 -23 -15.5 -45t-35 -43.5t-40 -43t-30.5 -42.5q-25 -59 -75 -146t-102 -178.5t-95 -176.5t-56 -142q-4 -14 0.5 -23.5 t6.5 -15.5q66 -14 140.5 -11t139.5 5l94 2q14 49 17.5 121t7.5 142.5t16.5 124.5t46.5 69q8 0 22.5 -9.5t29 -20.5t24.5 -22.5t10 -15.5q0 -18 -4 -69.5t-8 -107.5t-7 -107.5t-1 -71.5v-17.5t-4 -17.5q33 -16 65.5 -19.5t66.5 -3.5t67.5 -3t64.5 -19q4 -6 7 -14.5t3 -14.5 q0 -16 -11 -36.5t-19 -34.5q-4 -16 -21 -23l-211 8q-14 -29 -14 -65v-99.5t-1 -131t-3 -122t-8 -71.5q-16 -18 -46 -22.5t-51 -18.5q-20 0 -32.5 25.5t-18.5 65.5t-7 87t0 91t3 78t2 48q0 41 4 75t-4 75q-4 0 -7 1t-7 1l-103 -9q-2 -2 -38.5 -2h-81h-85h-51.5h-106 q-12 0 -26.5 8.5t-28 20.5t-21.5 26.5t-8 26.5z" />
<glyph unicode="5" horiz-adv-x="1259" d="M133 127q4 16 10.5 29.5t22.5 21.5q23 0 46.5 -7t39.5 -24q6 -12 35.5 -10t48.5 -8q14 4 44 7t58 -7q20 0 62.5 14.5t86.5 33t85 37.5t59 30q8 12 14.5 45t11.5 69.5t8 70.5t3 50q2 63 -33 115.5t-87 89.5t-110.5 56.5t-101.5 19.5q-25 0 -48 -3t-46 7l-80 -6 q-41 0 -84 55q0 27 -2 56.5t-2 56.5q0 16 1 64t2 109.5t1 128t-1 120t-5 84t-10 22.5q4 25 12 45q6 12 12.5 17.5t14.5 8.5t15 6t15 15q2 4 11.5 10.5t13.5 2.5q16 4 29 4q33 0 43 5t22 -20q4 -8 19.5 -9t34 1t36 4t27.5 0q14 4 49 5t79 1t92 -3t92 -7t76 -10t44 -14 q0 -4 -1 -16.5t-1 -27v-25.5v-15l-10 -19q-109 -20 -214.5 -18t-215.5 2q-16 0 -25.5 -2t-16.5 -4t-16.5 -2t-23.5 6q-12 -16 -18.5 -23.5t-16.5 -23.5q8 -20 10 -59.5t1 -82.5t-3 -84t-2 -61q0 -37 -1 -66.5t-3 -66.5q23 0 37 -8.5t33 -22.5l325 -35q37 -6 68 -45t53.5 -89 t35.5 -103.5t15 -87.5q4 -121 -6 -200t-43 -136.5t-90 -100.5t-147 -90q-6 -4 -42 -11t-77 -16.5t-77 -15.5t-44 -6q-12 0 -42 4t-61.5 10.5t-56 14.5t-26.5 16q-31 18 -42.5 52t-21.5 69z" />
<glyph unicode="6" horiz-adv-x="1288" d="M49 799l19 8q8 18 16 49t15 65.5t14.5 68.5t15.5 57q14 37 22.5 75.5t18.5 76.5t23.5 74t35.5 66q33 47 92.5 94.5t128 84t139 59t130.5 22.5q35 0 63.5 -20t40 -47t0 -53.5t-54.5 -38.5q-20 8 -56 9t-55 1q-16 0 -43.5 -7t-55.5 -17.5t-51.5 -23.5t-31.5 -28 q-35 -25 -76 -75t-76.5 -114.5t-61 -138t-30.5 -145.5q-2 -16 6.5 -32.5t12.5 -32.5l14 -2q61 16 124 25t128 9q70 0 129.5 -8t110.5 -30.5t93 -63.5t77 -104q0 -18 4 -33t8 -29t8 -29.5t4 -38.5q0 -109 -30.5 -208t-100.5 -179q-74 -86 -164 -114.5t-196 -28.5h-19 q-86 39 -139 74t-87 70.5t-55.5 74.5t-41.5 86q-18 41 -17.5 87t-17.5 87q2 51 -7 125t-18 172zM211 616q0 -119 32.5 -210t110.5 -181q68 -53 125.5 -63t104.5 2t81.5 36.5t55.5 41.5q18 6 30.5 37.5t21.5 71.5t15.5 79t10.5 57l-27 115q-14 20 -29.5 33.5t-29 24 t-25.5 19.5t-20 19l-21 7q-8 6 -27.5 10t-43 6t-44 3t-32.5 1q-23 0 -71 -5t-96 -17.5t-85 -33t-37 -53.5z" />
<glyph unicode="7" horiz-adv-x="1484" d="M39 1503l8 17q8 2 6 12t4 19.5t26.5 17.5t72.5 8q31 0 61.5 -3t61.5 -3q96 0 193 9t196 9h131.5t128.5 -22l4 -33q0 -41 -10.5 -78t-24.5 -74l-10 -8q-41 -135 -72 -241q-14 -45 -26.5 -89.5t-22.5 -80t-16.5 -58t-6.5 -24.5q0 -10 7.5 -18.5t17.5 -12.5q27 0 40 2 t23.5 3t22.5 3t41 2q27 0 51.5 -7t48.5 -15l11 -47l-33 -50l10 15v-4q-8 -8 -16.5 -13.5t-12.5 -15.5l-28 -14q-25 -6 -38.5 -9.5t-24.5 -3.5h-25.5h-38.5q-10 0 -22.5 2t-22.5 2q-43 0 -64.5 -44t-38 -122.5t-34 -186t-54.5 -236.5q-10 -25 -14 -42.5t-11.5 -33 t-19.5 -28.5t-37 -25q-10 6 -22.5 12t-22.5 6t-16 -8t-12 -15q-8 12 -14.5 24.5t-12.5 25.5q20 61 25.5 118.5t35.5 114.5q27 49 39.5 103.5t21.5 109.5t19 110.5t31 106.5q-47 20 -90 21q-23 0 -38 -3t-27.5 -6.5t-28 -5.5t-37.5 -2h-17q-23 25 -39 62q23 53 49.5 69.5 t80.5 16.5q41 0 95 -4t91 14q4 2 17.5 39t29.5 92t34.5 119.5t34 124t25.5 103.5t10 56l-2 25q-23 29 -53.5 32t-64.5 3q-78 0 -155 -4t-155 -4q-23 -10 -46 -11.5t-46.5 -0.5t-45 1t-40.5 -8q-37 8 -66.5 22.5t-29.5 61.5z" />
<glyph unicode="8" horiz-adv-x="1329" d="M55 1221q0 104 46 175.5t119 115.5t163 64.5t178 20.5q86 0 170 -43t141 -104q16 -16 26.5 -48t16 -67t7.5 -69.5t2 -59.5q0 -37 -21.5 -87t-54.5 -98t-71 -88t-70 -56q-6 -10 -18.5 -24.5t-12.5 -27.5q0 -8 27.5 -25.5t62.5 -37t66.5 -37.5t41.5 -27q25 -25 41.5 -64.5 t24.5 -84.5t11 -89t3 -79q0 -47 -20.5 -109.5t-56 -121t-82.5 -99.5t-101 -41q-41 -16 -102.5 -23t-106.5 -7q-80 0 -154.5 36.5t-133 96t-94 134.5t-35.5 152q0 160 76.5 254.5t215.5 159.5q-8 16 -42.5 37.5t-72.5 43t-68 39t-30 28.5q-20 23 -37.5 54.5t-29.5 67 t-18.5 71.5t-6.5 67zM193 1208q0 -86 25.5 -131t68.5 -72.5t101 -48t124 -57.5q55 39 105.5 70.5t87 70.5t59 90.5t22.5 129.5q0 47 -24.5 84.5t-61 65.5t-81 43t-82.5 15q-57 0 -118 -15t-111 -47t-82.5 -81t-32.5 -117zM211 436q0 -68 20.5 -125t58.5 -99t94 -65.5 t128 -23.5q20 0 56 3t76 15.5t75 34t51 57.5l57 127l-10 150q-6 47 -46 89t-92 75t-104.5 51t-80.5 18q-47 0 -96.5 -28.5t-91.5 -72.5t-68.5 -99.5t-26.5 -106.5z" />
<glyph unicode="9" horiz-adv-x="1302" d="M49 1106q0 74 9.5 128t28.5 102t48 94.5t68 103.5l143 68q18 2 41 1t41 -1q49 0 101.5 -11.5t101.5 -11.5l24 2l17 -16q12 18 28.5 21t36.5 7l41 -4q25 -37 37 -97t18.5 -127t13.5 -130.5t23 -106.5v2q20 -96 41 -192.5t21 -194.5q0 -123 -8.5 -254t-50.5 -239.5 t-132 -178t-254 -69.5q-63 0 -130.5 17.5t-131.5 27.5l-125 70l-6 96q6 10 17.5 27.5t23.5 17.5q4 0 8 -4l90 -51q41 -12 98.5 -36t133.5 -32q94 -10 157.5 21.5t101.5 91t53.5 138.5t15.5 165v122t-3.5 75.5t-11.5 74.5t-26 119q-25 -29 -32 -36l-11 -11t-12.5 -11 t-34.5 -34q-6 -25 -37 -46.5t-68 -38.5t-75 -27.5t-60 -10.5q-66 0 -132.5 34t-119.5 87t-87 121.5t-34 136.5zM166 1092q0 -35 17.5 -73t46 -68.5t63.5 -51t72 -20.5q104 0 177.5 49t121.5 135q16 29 22 74t6 92t-5 92t-13 74l-12 22h8q-47 16 -106.5 37t-112.5 21 q-10 0 -32 -4.5t-45.5 -9.5t-44 -10t-30.5 -9q-72 -70 -102.5 -158t-30.5 -192z" />
<glyph unicode=":" horiz-adv-x="710" d="M252 342q0 27 8 38t37 11q20 0 50 -4t56.5 -15.5t45 -29.5t18.5 -47q0 -12 -7 -27.5t-19.5 -29t-27 -22.5t-26.5 -9q-18 0 -41.5 14.5t-44 34.5t-35 44t-14.5 42zM252 897q0 27 9 37t36 10q20 0 50 -4t56.5 -14.5t45 -28.5t18.5 -45q0 -12 -8 -27.5t-20.5 -30t-26 -24.5 t-25.5 -10q-18 0 -41.5 14t-44 34.5t-35 45.5t-14.5 43z" />
<glyph unicode=";" horiz-adv-x="614" d="M184 -59q0 27 13.5 69.5t34 88.5t42 87t39.5 60v4q16 16 39 32.5t47 16.5q29 0 29 -33q0 -16 -11 -56t-28.5 -90t-39 -105.5t-43 -100.5t-42 -74.5t-33.5 -29.5q-16 0 -25 16t-14.5 37.5t-6.5 44t-1 33.5zM279 756q0 29 9 39t38 10q14 0 39.5 -2t50 -9.5t42 -20.5 t17.5 -36q0 -35 -37 -62.5t-69 -27.5q-16 0 -31.5 11.5t-29 29t-21.5 36t-8 32.5z" />
<glyph unicode="&#x3c;" horiz-adv-x="1810" d="M389 715l21 155l905 369l41 -137l-778 -307l772 -371l-95 -78z" />
<glyph unicode="=" horiz-adv-x="1748" d="M350 578l23 34q29 16 38 25.5t16 13.5t21.5 5t57.5 3h-14h-3h-2h7h2l34 3h172q111 0 235 -2.5t234 -2.5q10 0 26.5 -1t33 -4t29 -11t12.5 -23l20 -28q-4 -10 -10 -21.5t-14 -19.5q-4 -10 -21.5 -19.5t-40 -15.5t-44 -9t-32.5 -3q-23 0 -58.5 4t-57.5 4q-166 0 -318.5 -3 t-306.5 3q-10 8 -19.5 15t-17.5 18zM350 1010q10 16 16.5 40.5t24.5 30.5l375 9q92 0 181 -5.5t181 -5.5q29 0 62 2t61 2q4 0 18.5 -5t18.5 -7q12 -16 12 -35l11 -14l-2 -43l-11 -12q4 -14 -23.5 -21.5t-65.5 -10.5t-78.5 -3h-61.5q-178 0 -350 8t-330 4q-10 8 -19.5 15.5 t-17.5 17.5z" />
<glyph unicode="&#x3e;" horiz-adv-x="1810" d="M389 1102l41 137l905 -369l21 -155l-867 -369l-94 78l774 371z" />
<glyph unicode="?" horiz-adv-x="1075" d="M143 1460q0 39 33 67.5t79 47t94 28t79 9.5q76 0 146.5 -31t124 -83t86 -120.5t32.5 -146.5q0 -84 -32.5 -134t-82 -84t-106.5 -60.5t-106.5 -59.5t-82 -82t-32.5 -131q0 -39 13 -79t38 -71.5t59.5 -52t75.5 -20.5q29 0 61.5 12t63.5 12q12 0 22.5 -5t10.5 -21 q0 -25 -14.5 -50.5t-38 -45t-51 -33t-52.5 -13.5q-57 0 -116.5 48.5t-107.5 117t-79 142t-31 124.5q0 20 11 46q14 18 22 39.5t19 41.5q25 59 92 106.5t137 89.5t124 82t54 87q0 51 -27.5 97t-70.5 82t-95.5 57.5t-99.5 21.5t-69.5 -15.5t-39 -35t-32.5 -34.5t-49 -15 q-25 0 -43.5 20.5t-18.5 44.5zM403 125q0 27 10.5 36t37.5 9q18 0 43.5 -4t49 -13.5t40 -25.5t16.5 -41q0 -12 -7 -26.5t-18.5 -27t-23.5 -21.5t-25 -9q-16 0 -37.5 13.5t-40 32t-32 40t-13.5 37.5z" />
<glyph unicode="@" horiz-adv-x="2238" d="M270 563q0 74 6.5 148.5t36.5 144.5q39 86 112 167t164 143.5t192.5 100.5t195.5 38q104 0 212.5 -4.5t207.5 -38.5q219 -78 344 -241t125 -400q0 -119 -40 -229.5t-114 -196.5t-176 -137.5t-227 -51.5q-6 0 -23.5 12.5t-34 30t-30 33.5t-13.5 24l2 15q-14 -16 -57 -35.5 t-92 -37t-95 -29t-69 -11.5q-76 0 -138.5 38t-106.5 96.5t-68.5 131t-24.5 142.5q0 166 77 283.5t216 201.5q31 18 58.5 26.5t55 11.5t56.5 3h63q51 0 116 -24.5t102 -61.5q10 -10 25 -14t20 -13l16 29l88 -2q-10 -55 -27.5 -145t-34 -187.5t-29.5 -188.5t-13 -147 q0 -23 18 -34t39 -11q84 0 149.5 53.5t111.5 131.5t69.5 165t23.5 156q0 172 -67.5 280.5t-177 171t-248 85t-279.5 22.5q-59 0 -115 -18q-256 -92 -377.5 -263t-121.5 -444q0 -84 17.5 -158.5t51.5 -148.5q57 -125 124 -206t152 -129t190.5 -66.5t240.5 -18.5 q109 0 197 15.5t163.5 49.5t144 90t138.5 138h74v-72q-18 -31 -44 -50t-53 -44q-127 -121 -258 -176t-309 -55q-248 0 -424 50t-288.5 158.5t-166 282.5t-53.5 420zM711 397q0 -59 8 -110t30.5 -89t65.5 -60.5t111 -22.5q39 0 73.5 15t63.5 38q63 47 104 100.5t63.5 114.5 t32 131t9.5 150q0 51 -18.5 85.5t-49 56t-71.5 31t-86 9.5q-92 0 -156 -40t-103.5 -104.5t-58 -144.5t-18.5 -160z" />
<glyph unicode="A" horiz-adv-x="1128" d="M27 90q0 16 7 33.5t13 34.5q29 70 47.5 141.5t33.5 143t30.5 142t40.5 142.5l-2 2q10 29 29.5 103.5t47 171t58 201t63.5 191.5t63.5 143t57.5 56q31 0 63.5 -56t66.5 -144t69 -195.5t69.5 -208t69.5 -183.5t68 -122q2 -4 10 -13t16 -19.5t14.5 -20.5t6.5 -15 q0 -14 -14.5 -28.5t-14.5 -48.5q0 -45 23.5 -118t53.5 -145.5t53.5 -131t23.5 -76.5q0 -23 -19.5 -31t-38.5 -8q-41 0 -67.5 31.5t-46 81t-34 108.5t-26.5 115.5t-27.5 101.5t-35.5 68q-25 4 -50.5 6t-52.5 2q-98 0 -195.5 -7.5t-195.5 -13.5q-6 -18 -18.5 -63t-28.5 -102.5 t-35.5 -118t-40 -111.5t-42 -86t-40.5 -37q-25 10 -49 31.5t-24 52.5zM338 735q0 -31 17.5 -46t44 -21t54 -6h50.5h60.5t73.5 6t62.5 23t26.5 52q0 41 -16.5 84t-35 84t-34.5 77t-16 63q0 12 -11.5 51t-28 80t-33.5 72.5t-30 31.5q-16 0 -38.5 -55t-45 -126t-40 -135.5 t-23.5 -82.5q-12 -35 -24.5 -75t-12.5 -77z" />
<glyph unicode="B" horiz-adv-x="931" d="M29 1497q0 18 6 37l4 4q6 14 25.5 21.5t43 11.5t47 5t35.5 1q94 0 198 -13.5t192 -54.5t145 -114.5t57 -194.5q0 -55 -15 -99t-40 -84t-56.5 -77t-66.5 -76q51 -39 103.5 -81t95.5 -90t69.5 -106.5t26.5 -129.5q0 -102 -55.5 -186.5t-126.5 -147.5q-43 -37 -80 -57.5 t-76 -31.5t-82 -14.5t-98 -3.5q-23 0 -79 -1h-28q-42 0 -86 2q-58 3 -103.5 13.5t-45.5 32.5q0 133 4 264.5t4 264.5q0 80 3 198.5t4 243.5v50q0 98 -3 190q-4 115 -16 188q-2 8 -4 17.5t-2 17.5zM186 403q0 -70 5.5 -137t11.5 -137q29 -4 59.5 -7t59.5 -3q33 0 75.5 8 t85.5 22.5t81 35t63 44.5q14 16 38.5 51t47 75t39 77t16.5 60q0 27 -14.5 60.5t-37 65t-48 57t-50.5 36.5q-53 20 -125.5 28.5t-130.5 8.5q-63 0 -96 -7.5t-48 -28t-19 -57.5t-9 -96q-4 -39 -4 -78v-78zM186 1247q0 -18 1 -70.5t4.5 -109.5t8.5 -105.5t13 -60.5q20 -8 31 -8 q68 0 140.5 25.5t131.5 71.5t98 107.5t39 135.5q0 47 -19.5 90t-60.5 68l-2 4q-47 29 -113.5 39t-119.5 10q-57 0 -88 -11.5t-45.5 -36t-16.5 -61.5t-2 -88z" />
<glyph unicode="C" horiz-adv-x="1230" d="M31 745q0 113 34.5 243t100 248t158 209t206.5 128l-6 2q37 14 74 25.5t78 11.5q27 0 91 -12.5t131 -34t118 -50t51 -61.5q0 -10 -10 -15t-21 -5q-25 0 -54.5 12t-64 27.5t-74.5 27.5t-87 12q-100 0 -183.5 -37.5t-150 -101t-116.5 -147.5t-84 -175t-50 -185.5 t-16 -176.5q0 -68 20.5 -129t20.5 -127q0 -29 16 -69.5t41 -80.5t53.5 -75t52.5 -51q20 -14 55.5 -22.5t74 -11.5t75.5 -3h62q137 0 225 30.5t144.5 67.5t91 67.5t67.5 30.5q16 0 30.5 -4t14.5 -26q0 -18 -21.5 -45t-50 -53.5t-57.5 -48t-43 -29.5q-84 -51 -183.5 -75 t-197.5 -24q-125 0 -218 21.5t-160.5 72t-115 133.5t-79.5 203q-20 74 -31.5 150t-11.5 153z" />
<glyph unicode="D" horiz-adv-x="1353" d="M27 1589q0 20 23.5 33.5t55 20t62.5 9.5t45 3l4 6q63 4 126 7t126 3q201 0 359.5 -54t268 -159.5t168 -261.5t58.5 -360q0 -106 -41 -196.5t-84 -184.5q-8 -16 -36.5 -55.5t-63.5 -80t-69 -73.5t-48 -35q-47 -20 -84 -43q-61 -37 -134 -65.5t-150.5 -47t-155.5 -29 t-150 -10.5q-18 0 -39.5 1t-44 4.5t-43 11.5t-35.5 22q-12 14 -19 79t-11 162t-5 220t-2.5 252t-4.5 255t-9 232.5t-17 183.5t-30 107q-4 6 -12 19.5t-8 23.5zM209 1518l2 -144q6 -293 12 -589t31 -588q0 -4 1 -21.5t5 -19.5q16 -12 34.5 -14.5t39.5 -2.5q170 0 325.5 56.5 t273.5 160t187.5 249t69.5 321.5q0 94 -11.5 169.5t-40 137t-79.5 115t-131 104.5v-6q-51 33 -99.5 52.5t-96.5 28.5t-100 11t-112 2q-80 0 -156.5 -6t-154.5 -16z" />
<glyph unicode="E" horiz-adv-x="917" d="M31 1116v90v149t2 145.5t6 80.5h-4q6 12 69.5 18.5t142.5 9.5t148.5 4t87.5 1q12 0 47 1q18 0 38 0.5t42 -0.5q45 -1 94.5 -3t89.5 -7.5t66.5 -16.5t26.5 -27q0 -18 -26.5 -28.5t-66.5 -17t-88.5 -9.5t-91.5 -4h-40h-36q-32 1 -42 1h-340q-8 -88 -17.5 -176t-9.5 -176 q0 -68 6 -114t27.5 -72.5t62.5 -38t111 -11.5q38 1 110 7q63 6 129 5h20q77 -1 140.5 -13.5t79.5 -49.5q0 -18 -49 -28.5t-110.5 -15.5t-118 -5h-68.5l-313 -6q-2 -117 -5.5 -230.5t-3.5 -230.5v-44t2.5 -65.5t6.5 -63.5t12 -38q10 -10 55 -17t109.5 -11.5t140.5 -7.5 t146.5 -7t127 -8t84.5 -10q8 -2 27 -8.5t19 -18.5t-12.5 -16t-22.5 -6q-81 -16 -168 -16q-12 1 -24 1q-100 2 -193 2h-418q-2 276 -5 550t-3 552z" />
<glyph unicode="F" horiz-adv-x="864" d="M29 1569q0 10 8 18t16 12l-4 11q14 8 68.5 12t119 6t122 3t77.5 1q10 0 43 1t77 1t92 -3t88 -10t66.5 -19.5t26.5 -32.5q0 -18 -45 -26.5t-102 -12.5t-107.5 -5t-62.5 -1q-14 0 -60 -3t-96.5 -7.5t-93.5 -11.5t-51 -15q-8 -10 -14.5 -51t-9.5 -98.5t-5 -122t-3 -119 t-1 -92v-41.5l240 -5q10 0 54 -2t93 -8t89 -15.5t40 -23.5q0 -16 -40 -26.5t-89 -17.5t-94 -11t-55 -4q-14 0 -47 -3t-68 -6t-66.5 -9.5t-41.5 -12.5q-8 -6 -12.5 -48t-6.5 -93t-2 -97v-57l2 -260v-48t-2 -80t-10 -75.5t-23 -33.5q-10 0 -16 5t-12 9q-16 12 -23.5 66.5 t-9.5 131t-2 167t-1 174.5t-7.5 153.5t-20.5 106.5q-4 12 -9 25.5t-5 27.5q0 12 4 20.5t12 18.5q12 14 18.5 53t9.5 83t3 84v58q0 27 -1 71t-4 92t-9.5 90t-18.5 65q-4 6 -11 19.5t-7 21.5z" />
<glyph unicode="G" horiz-adv-x="1302" d="M33 739q0 70 5 139.5t21 137.5q12 55 47 141t82.5 171t104.5 151.5t117 85.5q33 10 63.5 21t58.5 28l-2 -6q27 14 59 18t60 4q14 0 49 -4t79 -11t91 -19.5t86 -27t64.5 -31.5t25.5 -38q0 -23 -16 -27t-35 -4q-29 0 -54.5 6.5t-54 14.5t-61 14t-71.5 6q-57 0 -124 -1 t-118 -25q-25 -12 -62.5 -46t-75.5 -76t-70 -83t-42 -66q-10 -23 -18.5 -58.5t-18.5 -51.5q-23 -41 -33 -89t-13 -99q-2 -39 -2 -77v-25q1 -50 1 -95q0 -117 7 -221.5t44 -184.5t115 -127t219 -47q27 0 59.5 2t66.5 7.5t65.5 14.5t56.5 23q55 35 113.5 101.5t105.5 146.5 t77 163t30 150q0 37 -27 54.5t-66 22.5q-32 4 -69 4h-15h-17q-37 0 -69 4q-38 4 -65 17t-27 48q0 20 33 29.5t74 13.5t79 4h50q45 0 92 3q12 1 23 1q33 0 62 -7q38 -9 62.5 -35.5t24.5 -86.5q0 -137 -50 -279.5t-139.5 -257t-214 -188.5t-274.5 -74q-170 0 -280.5 57.5 t-175 156t-89 229.5t-24.5 278z" />
<glyph unicode="H" horiz-adv-x="1128" d="M29 780q0 25 8 39.5t24 30.5q14 16 24.5 69.5t15.5 127t9.5 156.5t9.5 159t12 134t20 83l-7 8l35 29q23 0 36 -25.5t20.5 -64.5t10.5 -86q2 -35 2 -68v-22q-1 -43 -2 -77t-1 -46l4 -357q43 -2 85 -5t85 -3q121 0 239.5 12.5t239.5 24.5l23 696h114q0 -14 -3 -69.5 t-5 -130t-2 -159.5t3 -162t12.5 -135t25.5 -79q8 -10 15.5 -19.5t11.5 -19.5q-2 -10 -10.5 -17t-16.5 -13q-18 -14 -26.5 -68.5t-10.5 -118.5q-1 -42 -1 -82v-40q1 -58 1 -79v-41.5v-74.5t-2 -90t-7 -87t-13.5 -66t-20.5 -26t-23.5 14.5t-17.5 22.5q-16 20 -22 74.5 t-9.5 126.5t-3.5 150.5t-1 146.5t-6 116t-17 60q-8 6 -35 10t-59.5 5t-61.5 1h-41q-23 0 -89 -1t-140 -5t-135.5 -11t-75.5 -19q-18 -15 -24 -73q-6 -50 -6 -114v-20q1 -76 2 -161v-28q0 -69 -4 -129q-5 -72 -20.5 -118t-47.5 -46q-29 0 -44.5 24t-22.5 54.5t-8 62.5t-1 50 q0 92 7 180t7 180q0 47 -9 78t-20.5 54.5t-20.5 41t-9 35.5z" />
<glyph unicode="I" horiz-adv-x="231" d="M49 1003.5v156v100.5v69t1 113.5t5 113t15 64.5l4 2l35 29q12 0 19 -23.5t12 -54.5t6 -58.5t1 -35.5q10 -150 11.5 -299.5t5.5 -298.5q2 -104 3 -207t1 -207q0 -25 2 -91q1 -33 1 -67q0 -33 -1 -69q-2 -72 -11 -133.5t-30 -77.5q-10 2 -16.5 8t-12.5 12q-10 10 -18 60.5 t-13.5 127t-9.5 173t-6 199t-3 204.5t-1 190.5z" />
<glyph unicode="J" horiz-adv-x="706" d="M35 -207q0 16 9 26.5t26 10.5q27 0 47 -26.5t46.5 -58.5t62.5 -58.5t93 -26.5q41 0 74 15.5t57.5 41t43 59.5t28.5 68q6 16 10.5 78t7.5 153t5 203.5t4 231.5t3 235.5t2 216t2 173t1 108.5v71.5t2 114t5 111.5t7 66h9q4 4 14 12t18 8q27 0 42.5 -27.5t23.5 -69.5 t10 -92.5t2 -97.5t-2 -84.5t-2 -52.5q0 -233 -5 -463.5t-13 -464.5q-3 -85 -3 -179v-47v-11q0 -114 -20 -213q-27 -129 -99.5 -198.5t-205.5 -69.5q-47 0 -101.5 15t-99.5 46t-74.5 75t-29.5 101z" />
<glyph unicode="K" horiz-adv-x="911" d="M29 1179v83v147.5t4 144.5q0 4 1 21.5t5 19.5h4l27 13q20 0 34.5 -18.5t23.5 -44t12 -52.5t3 -41q0 -37 2 -90t6.5 -108.5t11.5 -106.5t17 -86q4 -4 7 -14.5t12 -10.5q8 0 41.5 42t83 105.5t107.5 136.5t113.5 136.5t102.5 105.5t74 42q16 0 34.5 -6.5t18.5 -26.5 q0 -12 -38 -61.5t-94 -118t-121.5 -147.5t-123 -150.5t-96.5 -129t-41 -79.5q53 -82 124 -176.5t148.5 -189.5t156.5 -185t151 -164q16 -16 27.5 -35.5t11.5 -44.5q0 -41 -39 -41q-12 0 -62.5 52.5t-119 130t-147.5 170t-148.5 170t-119.5 130t-61 52.5q-2 0 -2 -4 q-6 -14 -7 -34t-3 -36q-6 -72 -7 -143.5t-1 -143.5q0 -19 3 -79q2 -30 1.5 -61t-1.5 -63q-3 -64 -17.5 -114.5t-49.5 -50.5q-23 0 -37 14q-4 4 -8 54t-7 131t-5 182.5t-4 210t-4 215t-3 195.5t-1 152z" />
<glyph unicode="L" horiz-adv-x="858" d="M31 1096v84.5t1 152.5t2 148.5t5 72.5q10 18 19.5 22.5t31.5 4.5q12 0 18.5 -12.5t8.5 -22.5q16 -70 21 -152q4 -69 4 -140v-29q-1 -86 -3 -170t-2 -156q0 -81 -1 -189v-54q0 -82 2 -166q3 -112 15.5 -216t39.5 -180q129 4 254.5 8t254.5 4q14 0 36 1.5t42.5 -2 t35.5 -13.5t15 -31q0 -29 -55 -40q-56 -11 -126 -13q-28 -1 -55 -1q-41 0 -79 2q-64 3 -82 3h-395q-2 272 -5 542t-3 542z" />
<glyph unicode="M" horiz-adv-x="1409" d="M22 390q-1 48 -1 94q-1 46 1 90q2 88 4.5 152.5t2.5 82.5q0 377 12 756l-2 2l29 22q27 0 76 -56t109 -139t128 -180.5t132.5 -180.5t118.5 -138t91 -55q23 0 68 55t103 138t121.5 179.5t123 179.5t107.5 138t75 55q20 0 32.5 -41t18.5 -104.5t8 -138t2 -142t-1 -119 t-1 -65.5v-60v-61v-66v-753h-120l-13 612q-4 121 -6 239t-10 238q-2 29 -3 56.5t-9 56.5q-2 2 -2 5t-5 3q-10 0 -47 -48t-87 -119.5t-108.5 -154.5t-112.5 -155t-98 -120t-65 -48q-14 0 -55 51t-95.5 128t-114.5 167t-114.5 167t-93.5 128t-51 51q-10 0 -16.5 -29.5 t-8.5 -68.5t-2 -74v-47q0 -193 8.5 -380t8.5 -380q0 -18 1 -65v-19q0 -37 -3 -77q-4 -50 -17.5 -88.5t-44.5 -38.5q-27 0 -42 53t-22.5 134t-9.5 178z" />
<glyph unicode="N" horiz-adv-x="1122" d="M29 910.5v97.5v60v113.5t1 139.5t2 136.5t3 105.5t6 47q8 10 16.5 18t24.5 8q25 0 73 -51t108.5 -135t131 -191.5t141 -219t137 -219t120 -191.5t90.5 -135.5t47 -51.5t16 17.5t9 41t4.5 44t1.5 26.5q6 113 6 225.5v225.5q0 66 -3 139.5t-3 149t5 149.5t21 137 q2 10 7 22.5t18 12.5q10 0 19 -9t18 -15q12 -12 19 -89t12 -187.5t7.5 -240.5t3.5 -250t1 -212v-127q0 -12 1 -52q0 -20 1 -44q0 -24 -1 -50q-1 -54 -3.5 -111t-7.5 -106t-15.5 -80.5t-24.5 -31.5q-10 0 -33.5 24.5t-53 63.5t-61.5 85t-58.5 87t-43 72.5t-16.5 41.5 q0 14 -15.5 32t-32.5 34t-32.5 32.5t-15.5 30.5q0 8 -35 65.5t-86 137.5t-113.5 173t-116 173t-92 134.5t-44.5 60.5q-12 -154 -17.5 -308.5t-7.5 -310.5q0 -14 2 -66t2 -122t-1 -146.5t-8 -140t-20 -105.5t-32 -42q-25 0 -37.5 3t-26.5 25q-4 6 -7 73t-5 165t-3 213 t-2 218.5t-1 180z" />
<glyph unicode="O" horiz-adv-x="1306" d="M29 621q0 82 1 159.5t9 153.5t27.5 149.5t56.5 147.5l-2 -4q33 66 78 140.5t103 137t130 103.5t156 41q166 0 294 -69t216 -181.5t133 -257t45 -295.5q0 -141 -49 -288.5t-139.5 -268.5t-218.5 -198t-283 -77q-51 0 -97.5 18.5t-91.5 41.5q-82 39 -149.5 94t-116.5 124.5 t-75.5 152.5t-26.5 176zM176 725q0 -96 19.5 -197.5t66.5 -186.5t124 -139.5t194 -54.5q137 0 240.5 69t172 175.5t102 234.5t33.5 246q0 109 -30.5 218.5t-83.5 205.5q-6 12 -48 45t-91.5 69t-93.5 65.5t-58 35.5l-2 -6q-20 2 -38.5 7.5t-39.5 5.5q-82 0 -148.5 -41 t-118.5 -107.5t-89 -153t-61.5 -174.5t-37 -171t-12.5 -146z" />
<glyph unicode="P" horiz-adv-x="890" d="M27 1554q0 14 15 24.5t36.5 17t42 9.5t31.5 5l6 -2q47 8 96 14t98 6q80 0 169 -19.5t166 -62.5t127 -110.5t50 -163.5q0 -63 -20.5 -124t-44.5 -118q-35 -82 -85 -128t-106.5 -70.5t-116 -32.5t-114.5 -14.5t-101.5 -14.5t-76.5 -33q-10 -8 -14.5 -26.5t-6.5 -39t-2 -41 v-30.5q0 -104 7 -208.5t7 -209.5v-41.5t-5 -55.5t-16 -48.5t-36 -20.5q-10 0 -16 4.5t-13 8.5q-10 8 -16 61t-9 129t-5 164t-2 167t1 136t1 72v83v137t-1 163t-5.5 161.5t-10.5 133t-14 75.5q-4 8 -10 20.5t-6 22.5zM200 1104q-1 -18 -1 -36q0 -36 4 -70q6 -52 29.5 -89 t76.5 -37q195 0 310.5 111t115.5 309q0 43 -15 77t-46 63v-7q-31 33 -75 49.5t-93 22.5t-98.5 6h-92.5q-14 0 -49 -1t-47 -9q-10 -74 -13 -148.5t-3 -150.5q0 -35 -3 -90z" />
<glyph unicode="Q" horiz-adv-x="1206" d="M29 791q0 57 6 116q4 39 18.5 99.5t29.5 118t27.5 100.5t12.5 49q0 23 21.5 54.5t56.5 66.5t76.5 68.5t82.5 62t77 49t59 27.5l-7 4q29 8 57.5 8h57.5q150 0 258.5 -73t177 -186.5t101.5 -249.5t33 -265q0 -57 -5.5 -127t-18.5 -139.5t-34.5 -134t-54.5 -113.5 q-16 -27 -34.5 -57.5t-18.5 -63.5q0 -29 17 -49.5t37.5 -37t38 -32.5t17.5 -35q0 -16 -19.5 -25.5t-35.5 -9.5q-31 0 -51.5 14.5t-38 31t-35.5 30.5t-43 14q-29 0 -56.5 -14t-61.5 -30.5t-77 -31t-100 -14.5q-61 0 -118.5 5.5t-108.5 23.5t-94 52t-74 93q-35 63 -67 138 t-56.5 153t-38.5 157t-14 153zM145 836q0 -59 8.5 -136t28 -158t50 -159t74.5 -139.5t103.5 -98t137.5 -36.5q27 0 67.5 6t79.5 21.5t66.5 40t27.5 61.5q0 20 -10 34.5t-23.5 28.5t-23.5 32.5t-10 49.5q0 10 3 22.5t17 12.5q18 0 37 -13.5t39.5 -30t43 -29.5t44.5 -13 q31 0 54.5 29.5t40 75.5t26.5 102.5t16.5 109.5t8.5 96t2 64q0 94 -10.5 189.5t-40 182.5t-84 160.5t-142.5 122.5v9q-35 20 -70.5 37.5t-76.5 17.5q-45 0 -87 -20.5t-81 -41.5q-33 -18 -76 -49t-81 -69.5t-64.5 -80.5t-26.5 -83q0 -14 -9 -44t-19.5 -67t-21.5 -78t-13 -77 q-2 -20 -3.5 -40t-1.5 -42z" />
<glyph unicode="R" horiz-adv-x="948" d="M23 1571q0 25 46 41t105 25.5t115.5 12.5t79.5 3q25 0 71.5 -12.5t98 -29t96.5 -34.5t67 -33q43 -29 75 -69.5t51.5 -90t29.5 -101.5t10 -101q0 -78 -28.5 -152t-77.5 -134t-115.5 -105.5t-142.5 -63.5q-8 -2 -22.5 -5t-28 -9t-23.5 -15.5t-10 -21.5q0 -4 37 -45 t92 -101.5t119.5 -132t120 -136t92.5 -114t37 -65.5q0 -12 -9.5 -28.5t-25.5 -16.5q-25 0 -75 47t-112.5 117.5t-131 152.5t-131 153t-112 118t-73.5 47q-20 0 -29.5 -27t-13.5 -60.5t-4 -65.5v-44q0 -27 4 -97q3 -56 3 -116v-30q-1 -76 -10.5 -135.5t-33.5 -63.5l-25 -2 q-14 0 -23.5 4t-19.5 12q-6 4 -10 68.5t-6 167t-3 231.5t-2 265t-2 267.5t-4 235.5t-7.5 173t-12.5 79l-6 -6q-4 6 -12 19.5t-8 23.5zM192 1454q-2 -17 -2 -35q0 -23 4 -48q6 -46 5 -91q0 -113 2 -225.5t4 -225.5q35 -4 70.5 -9t70.5 -5q66 0 117 17.5t95 47t85 67.5t88 81 v182q0 119 -26.5 185.5t-81 98.5t-135 38t-187.5 6q-57 0 -81 -23.5t-28 -60.5z" />
<glyph unicode="S" horiz-adv-x="1042" d="M29 313q0 14 4 36t24 22q23 0 61 -32t75.5 -73t69.5 -78.5t42 -50.5l357 15q37 45 73.5 86t66 84t49 92t19.5 108q0 76 -30.5 123t-80.5 78t-113.5 48t-131.5 34.5t-131.5 41t-113.5 62.5t-80.5 99.5t-30.5 154.5q0 131 72.5 233.5t183.5 162.5l2 8q59 32 121 32h4 q31 0 88 -13t114.5 -36.5t100.5 -54.5t43 -65q0 -27 -19.5 -47.5t-42.5 -30.5q-12 0 -25.5 17t-35 37.5t-56 37t-90.5 16.5q-68 0 -126 -26.5t-102 -71.5t-69.5 -105.5t-25.5 -126.5q0 -86 55.5 -127.5t132.5 -54.5q35 -6 86.5 -22.5t102.5 -35t95 -32.5t64 -14 q39 0 64 -25.5t40 -59.5t27.5 -69t30.5 -51q16 -16 19.5 -46t3.5 -52q0 -111 -34 -207t-98.5 -167t-155.5 -112t-208 -41q-61 0 -115.5 5.5t-102.5 21.5t-92 46t-85 77q-8 10 -24.5 29.5t-32 42t-27.5 44t-12 33.5z" />
<glyph unicode="T" horiz-adv-x="1138" d="M27 1575q0 8 6 14h-6q4 4 41.5 7t92 5.5t118 2.5t120 1t98.5 1h54t58 2t107.5 2t129 -1t125 -8.5t95.5 -20.5t38 -36q0 -16 -32 -27.5t-80 -18.5t-105.5 -11t-108.5 -6t-88 -3t-45 -1l-6 -734q0 -14 -1 -75.5t-2 -143.5t-3 -174t-5 -171t-8.5 -133t-11.5 -58 q-14 -14 -28 -17h-3q-11 1 -15 15q-6 16 -9 26q-16 66 -21.5 139.5t-5.5 148.5t3 149.5t3 142.5q0 29 1.5 102.5t1.5 165.5v193.5t-2.5 187.5t-7.5 145.5t-13 69.5q-16 20 -59 25.5t-97 5.5q-56 0 -114 -2q-15 -1 -28 -1q-42 0 -78 5q-48 6 -78.5 24.5t-30.5 61.5z" />
<glyph unicode="U" horiz-adv-x="1251" d="M31 1356v44t3 65.5t13 59t31 25.5q23 0 37 -32.5t22 -83t11.5 -110.5t3.5 -114.5v-96.5v-56q2 -111 5 -224.5t20.5 -222t58 -210t120.5 -187.5q39 -41 63.5 -61.5t51.5 -29.5t60.5 -10t89.5 -1q51 0 82.5 1t57 8t50.5 26.5t59 56.5q90 98 135.5 210.5t63.5 235.5t18 250 t5 252q0 16 3 76.5t6 128t7 125t10 67.5v-8q4 4 14.5 13.5t18.5 9.5q37 0 53 -39q15 -38 20 -90q4 -37 4 -73q0 -14 -1 -29q-2 -50 -2 -70q0 -145 -1 -309.5t-27 -324t-89.5 -303t-185.5 -243.5q-39 -33 -72 -48q-34 -16 -66 -22q-28 -5 -59 -5h-11q-38 1 -87 1h-72t-73 4 t-69.5 15.5t-64.5 33.5q-117 86 -177 190.5t-86 221.5t-31 244t-11 258q-4 96 -8 190.5t-4 190.5z" />
<glyph unicode="V" horiz-adv-x="1312" d="M33 1499q0 23 15 38t38 15q31 0 52.5 -20.5t33.5 -46.5q86 -193 172 -388.5t148 -396.5q2 -10 12 -38.5t23.5 -66.5t28.5 -79t31.5 -75.5t31 -57.5t24.5 -23q6 0 13.5 12.5t13.5 28t10 29.5l6 21q10 37 45 125t82 196.5t99.5 227t95.5 218t71.5 167t28.5 77.5 q0 41 36 63.5t70 22.5q18 0 43 -5t25 -32q0 -23 -13.5 -48t-28.5 -53t-27.5 -57.5t-12.5 -56.5q0 -29 -14.5 -54t-32.5 -50t-33.5 -47.5t-15.5 -42.5l8 6q0 -16 -21.5 -70.5t-55.5 -128t-71.5 -159.5t-73.5 -166t-61.5 -145.5t-31.5 -98.5q-4 -25 -22.5 -76t-43 -104.5 t-51.5 -94t-51 -45.5h-15q-41 0 -65.5 42t-40.5 97.5t-26.5 111t-18.5 83.5q-94 287 -194.5 553.5t-221.5 538.5q-14 29 -14 53z" />
<glyph unicode="W" horiz-adv-x="1882" d="M23 1569v5q0 14 8 24q10 12 26 12q20 0 38 -10.5t34 -20.5q14 -10 36.5 -71.5t47.5 -148.5t49.5 -188.5t45 -192.5t35.5 -158.5t19 -88.5q2 -8 8.5 -36.5t15.5 -66.5t20.5 -80t22.5 -77t22.5 -57.5t19.5 -22.5q4 0 10 6q20 25 44 88.5t48.5 152.5t51 194.5t53.5 212 t55.5 207t56 177t55 122.5t54.5 46q53 0 82 -28.5t29 -81.5q0 -74 17 -166t41 -186.5t48.5 -183.5t40.5 -156q2 -12 9.5 -50t18.5 -88.5t24.5 -105.5t30.5 -101.5t36.5 -77t40.5 -30.5q18 0 34.5 28.5t29 66.5t21.5 74t15 52q49 129 79 257t73 257q14 43 33.5 115t40 145.5 t41 139t38.5 98.5q10 20 26.5 26.5t39.5 6.5q14 0 38.5 -6.5t24.5 -28.5q0 -29 -11 -80t-28.5 -116.5t-40 -137.5t-43 -139.5t-39 -123.5t-28.5 -91q-6 -18 -26.5 -91t-50.5 -171.5t-65.5 -207t-69.5 -200.5t-64.5 -152.5t-49.5 -62.5h-20q-18 0 -38 12.5t-36 30.5 t-26.5 38.5t-10.5 39.5q0 27 -12 68.5t-28.5 85.5t-32 88.5t-23.5 74.5l-133 561q-2 8 -10.5 39t-18.5 64t-21.5 58.5t-19.5 25.5q-10 0 -20.5 -19.5t-14.5 -25.5q-39 -78 -67.5 -163t-52 -173t-46 -175t-51.5 -169q-8 -23 -19 -67t-26.5 -98t-34 -111.5t-39 -104.5t-45 -77 t-49.5 -30q-31 0 -52 35t-34.5 81t-19.5 91t-8 66q-14 119 -45 270.5t-68 310t-77 309t-75 269.5q-10 35 -20 74t-12 75z" />
<glyph unicode="X" horiz-adv-x="1054" d="M31 86q0 41 25.5 109.5t63.5 149.5t82 167t82 161t63.5 133t25.5 83q0 12 -15.5 47t-38 81t-49 96t-49 96t-38 82t-15.5 52q0 29 -12.5 55.5t-27.5 52.5t-27.5 51.5t-12.5 49.5q0 16 12.5 25.5t28.5 9.5q51 0 87 -34.5t64.5 -88t50 -114t44 -113.5t46 -88t56.5 -35 q25 0 54.5 35t63.5 87t69.5 113.5t72.5 114t73 87t71 34.5q20 0 44.5 -5t24.5 -34q0 -20 -27.5 -71.5t-68.5 -117t-90 -140t-90 -141t-68.5 -120t-27.5 -77.5q0 -25 33.5 -89.5t83.5 -147.5t108.5 -174t109 -173t84 -143.5t33.5 -81.5t-17.5 -31.5t-35.5 -11.5q-43 0 -88 49 t-90 121.5t-90 158.5t-87 159t-79 122t-68 49q-23 0 -50.5 -49t-59 -122t-66.5 -159t-68.5 -158.5t-68.5 -121.5t-66 -49q-29 0 -47 14t-18 45z" />
<glyph unicode="Y" horiz-adv-x="858" d="M29 1548q4 6 15 14.5t19 8.5q25 0 60 -48t72.5 -120t77.5 -157t74 -156.5t61.5 -119.5t42.5 -48q18 0 41.5 47t51 117.5t58.5 153.5t63.5 153.5t64.5 118t65 47.5q20 0 29.5 -12.5t9.5 -30.5q0 -41 -27 -115t-61.5 -154t-68.5 -155.5t-50 -122.5q-57 -166 -122 -329 t-108 -333q-4 -14 -17 -65.5t-32.5 -106.5t-41 -98t-42.5 -43q-14 0 -22.5 13t-13.5 29.5t-6 34t-1 27.5q0 72 24.5 152t53.5 161t53.5 160.5t24.5 153.5q0 27 -25.5 88t-64.5 142t-83 170t-83 171t-64.5 145.5t-25.5 92.5q0 4 -1 9t3 9z" />
<glyph unicode="Z" horiz-adv-x="1482" d="M33 82q0 23 47 88.5t125 157.5t177 203.5t201.5 227t202 228.5t177 207t125 160.5t47.5 93.5q0 16 -13 22q-72 6 -141.5 8.5t-138.5 2.5q-29 0 -92 -3q-64 -4 -144 -6q-40 -1 -81 -1q-41 -1 -84 1q-85 2 -155.5 11.5t-115.5 30t-45 55.5v16l6 4q4 4 47 8.5t104.5 6.5 t134 3t137 2t113 1h60.5q14 0 69.5 2t128 2t153.5 -2t148.5 -10.5t111.5 -22.5t44 -37q0 -25 -45 -92.5t-119.5 -161.5t-170 -207.5t-194.5 -228.5t-194.5 -224.5t-170 -196.5t-119.5 -144.5t-45 -67.5q0 -4 4 -8q4 -6 43 -10t95 -7.5t122.5 -5.5t125 -3t101.5 -2t55 -1 q16 0 66 2t116 3h34q50 0 103 -2q71 -3 130 -14t98 -31.5t39 -55.5q0 -8 -1 -12t-3 -13q-4 -14 -22.5 -19t-28.5 -7q-78 -12 -159 -16.5t-163 -4.5t-163.5 3t-159.5 3q-16 0 -77 -2t-141 -3q-40 0 -82 -0.5t-86 0.5q-89 1 -164 8.5t-124 21.5t-49 39z" />
<glyph unicode="[" />
<glyph unicode="\" horiz-adv-x="1652" d="M307 1657v20q0 29 18.5 37t43.5 8h26.5t26.5 -4q25 -23 46 -40t42 -58q43 -72 79 -153t79 -154q29 -49 46 -100.5t44 -100.5v-29q12 -18 37.5 -68t52 -105.5t48.5 -103.5t24 -65q14 -29 22 -60.5t21 -59.5q12 -31 39.5 -86.5t59.5 -116t61.5 -114.5t47.5 -85 q12 -18 27.5 -35.5t29 -35t24 -37t10.5 -43.5q0 -12 -2.5 -24.5t-4.5 -25.5q-14 2 -31.5 2t-43.5 -22q-41 18 -62.5 49t-34 60.5t-19.5 54t-15 31.5q-35 59 -73 115.5t-71 114.5t-57.5 119.5t-32.5 133.5q-2 16 -17.5 49t-37 73t-45 84t-39.5 87q-10 37 -39 90t-58.5 106.5 t-53 101.5t-23.5 76q-10 10 -36 53.5t-53.5 93.5t-51 95t-25.5 57z" />
<glyph unicode="]" />
<glyph unicode="_" horiz-adv-x="1705" d="M-10 -95.5q-2 21.5 4 34.5q6 4 40 6t84 3t106.5 2t106.5 1h86h44q43 4 113.5 6t145.5 2h145.5h113.5q18 0 57 -1t80 -3t80 -3t57 -1h418q2 0 9.5 -1t16.5 -2t17 -2t10 -1q10 -20 24 -46t26 -44q-4 -12 -9.5 -5t-15.5 -2q-2 -8 -35 -12t-83 -7t-108.5 -5t-109.5 -3t-88 -1 h-43q-23 0 -41 6t-41 4q-14 0 -48 -2t-71 -4t-70.5 -3t-47.5 -1q-29 0 -73 1t-73 9q-72 -10 -232.5 -5t-387.5 -9l-199 24l-4 29q-2 14 -4 35.5z" />
<glyph unicode="`" horiz-adv-x="497" d="M115 1667q0 33 28 33q25 0 47.5 -17.5t38.5 -33.5v-2q23 -25 30 -58t7 -65v-43t-4 -51.5t-15 -43t-32 -18.5q-35 0 -55.5 37t-30.5 86t-12 99t-2 77z" />
<glyph unicode="a" horiz-adv-x="995" d="M29 315q0 66 19.5 137.5t47.5 131.5v-19l-6 -6q29 57 67 110.5t86 94.5t106.5 65.5t127.5 24.5q150 0 217.5 -71.5t67.5 -215.5q0 -51 -4 -125q-1 -21 -1 -41q0 -52 7 -101q10 -69 44 -117t110 -48q14 0 34.5 1t39 -1t30.5 -11t12 -30q0 -25 -15 -41t-38 -25.5 t-48.5 -13.5t-43.5 -4q-23 0 -48.5 4t-49 13.5t-43 25t-27.5 37.5q-4 12 -13.5 32.5t-25.5 20.5q-14 0 -43 -21.5t-72 -47t-100 -47t-131 -21.5q-141 0 -224 84t-83 225zM145 328q0 -29 10.5 -68t29 -73.5t44 -59.5t58.5 -25q70 0 137.5 24t120.5 71q35 33 52 59.5t24.5 56 t7.5 63.5v81l6 -6v93t-11.5 94t-41 73.5t-86.5 29.5q-68 0 -131.5 -42t-112.5 -104.5t-78 -135t-29 -131.5z" />
<glyph unicode="b" horiz-adv-x="972" d="M87 276q5 72 5 140q0 299 5 597t12 597l-3 -2q0 8 9 8q66 0 93.5 -57.5t33.5 -143.5q2 -36 2 -74q0 -55 -4 -115q-8 -104 -17.5 -194t-10.5 -156v-5q0 -60 21 -72q8 -4 10.5 -4h12.5t39 15t68.5 33.5t86 34t93.5 15.5q84 0 156.5 -25.5t126 -72.5t84 -116t30.5 -155 q0 -172 -78 -280.5t-227 -184.5q-86 -43 -178 -47t-187 -4q-88 0 -127 39t-50 99q-8 41 -8 87q0 21 2 43zM221 215q0 -59 38 -86t97 -27q29 0 72 15.5t88 37t85 46t61 43.5q27 25 51 62.5t42.5 79.5t30 86t11.5 81q0 45 -14.5 85t-41 70.5t-65.5 48t-88 17.5 q-35 0 -71 -14.5t-66 -32.5q-74 -43 -119 -104.5t-69.5 -131t-33 -141t-8.5 -135.5z" />
<glyph unicode="c" horiz-adv-x="790" d="M86 414q0 78 20.5 149.5t59.5 131t97.5 105.5t131.5 72l2 -2q29 10 60.5 15.5t62.5 5.5q27 0 65 -6t72.5 -20.5t59 -38t24.5 -58.5q0 -23 -16 -34t-37 -11q-25 0 -40 9t-31.5 21.5t-38 21.5t-54.5 9q-68 0 -125 -37.5t-100 -96t-66.5 -126t-23.5 -129.5q0 -49 16.5 -95 t47 -81t72.5 -55.5t95 -20.5q45 0 88 21.5t82 46.5t72 46.5t57 21.5q14 0 18.5 -11.5t4.5 -21.5q0 -35 -39 -75t-91 -74t-107.5 -56.5t-86.5 -22.5t-75 20.5t-89 50.5t-81.5 62.5t-55.5 57.5q-31 43 -41 98t-10 107z" />
<glyph unicode="d" horiz-adv-x="995" d="M41 426q0 51 20.5 106.5t52 106.5t72.5 96t83 78t80 53q34 18 62 17h5l192 -13q14 -2 20 42q5 37 4 92v21q-1 69 -4 149.5t-4 153.5v28q0 56 3 100q4 55 18 72l-6 6q27 33 66 33q6 0 10 -8.5t4 -10.5q10 -25 15 -66.5t8 -87.5t5.5 -89t2.5 -70q0 -37 1 -126t2 -201.5 t4 -235.5t9 -228.5t16.5 -182.5t26.5 -97q10 -12 26.5 -21.5t32.5 -9.5q35 0 64 21.5t63 21.5q14 0 27.5 -6t13.5 -23q0 -27 -18.5 -51t-45 -43.5t-56 -32t-52.5 -12.5q-43 0 -68.5 14.5t-44 32t-35 31.5t-38.5 14q-20 0 -41 -14t-50.5 -31.5t-70.5 -32t-102 -14.5 q-90 0 -160 34t-117 90t-71.5 132t-24.5 162zM188 420q0 -41 7.5 -93.5t26 -98.5t52 -77.5t86.5 -31.5q88 0 141.5 27.5t81 73.5t37 103.5t9.5 116.5v52t-1 71t-6.5 70t-13.5 51h2q-6 12 -22.5 31.5t-37 38t-41 32t-36.5 13.5q-49 0 -100 -43t-92 -102.5t-67 -124 t-26 -109.5z" />
<glyph unicode="e" horiz-adv-x="860" d="M75 360q-1 22 -1 42q0 35 3 68q5 52 25.5 100t69.5 100q43 45 100.5 87t114.5 68l8 -8q41 20 88 38.5t95 18.5q33 0 76.5 -18t82.5 -47t66.5 -65.5t27.5 -73.5q0 -61 -49 -124t-118.5 -114t-147.5 -86t-133 -41q-6 0 -28.5 -3t-47 -8t-44 -12.5t-19.5 -15.5 q0 -37 25.5 -65.5t62.5 -47t77 -28.5t68 -10q72 0 123 21.5t91 48t71 49t61 24.5q12 -18 13 -45q0 -43 -43 -81t-102.5 -66.5t-121 -45t-96.5 -16.5q-66 0 -119 20.5t-100 53.5t-90 72.5t-88 80.5q1 28 1 54q0 40 -2 75zM229 465q0 -12 18.5 -20.5t42 -12.5t46 -5t31.5 -1 q43 0 102 24.5t113.5 62.5t92.5 84t38 91q0 25 -13 47l2 -4q-25 47 -77 47q-41 0 -107.5 -34.5t-130 -85t-111 -103.5t-47.5 -90z" />
<glyph unicode="f" horiz-adv-x="741" d="M33 864q0 12 12 20.5t27.5 11.5t32 4t24.5 1q53 0 80 21.5t38 56.5t12 77t1 83q0 55 10.5 109.5t34 103.5t59 90t87.5 69h4q25 14 52.5 18.5t53.5 4.5q20 0 56 -5t69 -17.5t57.5 -33t24.5 -48.5q0 -20 -8 -41t-33 -21q-20 0 -37.5 12.5t-35 27.5t-37 28.5t-44.5 13.5 q-51 0 -91 -41t-67.5 -97.5t-42 -117.5t-14.5 -102q0 -45 3.5 -89.5t7.5 -89.5q12 0 56 1h18q36 0 75 -3q49 -4 87 -16t38 -39q0 -23 -35 -33t-81 -16t-90 -9t-64 -10q-4 -8 -7.5 -58t-5.5 -121.5t-4 -154.5t-4 -157t-3 -129t-1 -72v-72.5v-130t-2 -156.5t-9 -152.5 t-19.5 -116t-30.5 -48.5l-19 -2q-16 0 -23 11.5t-12 25.5q-6 29 -9 81t-4 118v44q0 45 1 94q2 73 3 139.5t3 123t2 90.5v650q-12 2 -44.5 5t-66.5 10t-59.5 20.5t-25.5 33.5z" />
<glyph unicode="g" horiz-adv-x="880" d="M49 428q0 66 21.5 132.5t59.5 123.5t90 102t114 70l-2 4q39 16 80 29.5t82 13.5q37 0 70.5 -12t64 -27.5t60.5 -28t61 -12.5q25 0 43 -1t29.5 -9t17.5 -27.5t6 -54.5q0 -141 -17.5 -287.5t-23.5 -287.5q-4 -86 -5 -175.5t-12.5 -173t-42 -163.5t-92.5 -148 q-41 -45 -100 -49t-115 -4h-77.5t-57.5 7t-52.5 23.5t-60.5 49.5q-10 8 -24 23.5t-27.5 33t-24 34.5t-10.5 30q0 8 3.5 18t11.5 14q23 0 48.5 -21.5t59 -47t75.5 -47t97 -21.5h37q39 2 64.5 6t43 15.5t32 32t32.5 55.5t33.5 79t25 90t14.5 92t5 87q0 23 -4 57.5t-27 48.5 q-8 0 -28.5 -16t-53 -34.5t-77.5 -34t-103 -15.5q-90 0 -154.5 37t-106.5 97.5t-62.5 136t-20.5 155.5zM184 401q0 -53 7.5 -103t29 -90t61.5 -64.5t107 -24.5q80 0 137.5 30.5t94 81t53 116t16.5 136.5q0 16 5 41t9 50q2 14 2 27q0 10 -2 19q-2 21 -14 33l-26 62l-5 -2 q-27 23 -32.5 40t-13 28.5t-26 16.5t-69.5 5q-39 0 -79 -14.5t-76.5 -38t-68.5 -52t-54 -59.5q-41 -57 -48.5 -113.5t-7.5 -124.5z" />
<glyph unicode="h" horiz-adv-x="1042" d="M95 260q1 43 3 77t2 48l2 383q0 16 1 77.5t2 145.5t3.5 177.5t5.5 174t6 135t9 60.5l15.5 15.5t21.5 11.5q29 0 42 -22.5t18 -53.5t4 -62.5t-1 -50.5q0 -115 -6 -228.5t-6 -227.5v-30t2 -49.5t6 -46t13 -20.5q20 0 46.5 14.5t57.5 32t64.5 31.5t70.5 14q41 0 81 -13 t77 -30q70 -31 111.5 -64.5t64.5 -76.5t29 -98.5t6 -128.5q0 -33 2 -89.5t14 -109.5t39 -93t78 -40q35 0 51.5 10t42.5 27q20 0 28.5 -19.5t8.5 -36.5q0 -23 -24.5 -40t-56.5 -29t-64.5 -18.5t-49.5 -6.5q-80 0 -114.5 55.5t-47 139.5t-15.5 180t-21.5 180t-64.5 139.5 t-142 55.5q-66 0 -117 -42t-88 -91q-27 -37 -39 -97.5t-17 -130t-6 -139.5t-7.5 -127t-20.5 -93t-45 -36q-27 0 -42 24.5t-22.5 61.5t-9.5 82q-1 30 -1 59v29z" />
<glyph unicode="i" horiz-adv-x="497" d="M113 1227q2 12 12 19t24.5 11.5t26.5 5.5t19 1q23 0 43 -26t20 -54q0 -14 -10 -29q-4 -2 -13.5 -5t-13.5 -3q-10 0 -28.5 -1t-36 4t-30.5 22.5t-13 54.5zM118 296v26q0 38 2 74q3 48 3 81q0 13 -1 65v54v60q1 62 5 118.5t14 83.5l-6 -6q8 8 20.5 10t22.5 2 q33 0 48.5 -25.5t20.5 -60.5q4 -25 4 -51q0 -11 -1 -21q-2 -36 -2 -61q0 -23 -2 -71t-4 -108q-1 -40 -1 -82v-43q1 -65 9 -118t22.5 -87t40.5 -34q25 0 47.5 14.5t45 32t46 32t50.5 14.5q28 0 28 -25t-28.5 -53.5t-67.5 -53t-79 -41t-60 -16.5q-55 0 -90 25.5t-54.5 66.5 t-25.5 93.5t-7 104.5z" />
<glyph unicode="j" horiz-adv-x="530" d="M29 -293q0 27 18 39q20 -2 36.5 -23.5t33 -47t35 -47t41.5 -21.5q29 0 49 48t32.5 123t19.5 163t9 167.5t3 138t1 75.5l-2 4q0 14 -1 62t-2 112v44q0 44 1 91q2 70 9 129t20.5 97t36.5 38q33 0 49 -26.5t21 -62.5q4 -30 4 -61v-13q-1 -38 -1 -60v-96.5t-1 -159.5 t-5 -200.5t-11 -218.5t-20.5 -211t-33 -179t-46 -125t-63.5 -47q-35 0 -75 29.5t-75.5 72.5t-59 89t-23.5 77zM356 1335q0 23 14.5 34t37.5 11q27 0 45 -17t18 -46q0 -23 -15.5 -43.5t-37.5 -20.5q-33 0 -47.5 27.5t-14.5 54.5z" />
<glyph unicode="k" horiz-adv-x="901" d="M96 29l8 745q2 192 12 382q9 159 9 321v61q4 4 13 11t16 7q27 0 44 -32.5t25 -83.5t10.5 -112.5t2.5 -118t-3 -100.5t-2 -58v-47v-87.5t1 -106.5t3.5 -104.5t4.5 -81t6 -36.5t10 -4q25 0 59.5 22.5t74.5 55t84 71.5t87 72t85 55.5t77 22.5q10 0 30.5 -6.5t20.5 -20.5 q0 -18 -31.5 -53t-78 -77t-101.5 -87t-101 -85t-78 -70.5t-32 -41.5q0 -10 25.5 -35.5t66.5 -58.5t91.5 -67.5t97.5 -63.5t86 -47t59 -18q31 0 60.5 6t58.5 6q10 0 18.5 -3t8.5 -16q0 -20 -14.5 -41.5t-36 -38t-45 -27.5t-42.5 -11q-35 0 -83 22.5t-101 55t-108.5 71.5 t-103.5 72t-87 55.5t-57 22.5q-31 0 -36 -48q-4 -40 -4 -85v-19v-22q0 -44 -3 -82q-4 -47 -33 -47q-18 0 -36.5 2t-37.5 4z" />
<glyph unicode="l" horiz-adv-x="573" d="M131 578.5v185.5v84t1 142t3 170t6 167t8.5 133.5t12.5 67.5h-4q4 6 16 15t21 9q12 0 20 -7t16 -17q4 -6 7.5 -54.5t5.5 -120t3 -154.5t2 -157.5t2 -129t1 -68.5q0 -27 -2 -84.5t-3 -129.5v-50q0 -50 1 -102q2 -79 8 -149.5t18.5 -123.5t32.5 -74q16 -16 34.5 -28.5 t41.5 -12.5q41 0 78 13.5t76 13.5q10 0 25.5 -3t15.5 -18q0 -27 -25 -50t-58.5 -39.5t-68.5 -27t-57 -10.5q-92 0 -138.5 42t-66 105.5t-21.5 137.5t-6 139q-6 92 -6 185.5z" />
<glyph unicode="m" horiz-adv-x="1587" d="M74 160q0 23 1 81t4 134t6 158.5t8 154.5t10.5 123t11.5 63q14 8 24.5 9.5t20.5 1.5q43 0 58 -24.5t20.5 -59.5t5.5 -72t10 -61q12 0 45 29.5t74 63.5t83 62.5t70 28.5q49 0 105.5 -20.5t103.5 -46t80 -46t35 -20.5q20 0 51 21.5t68 46t80 46t90 21.5q35 0 64.5 -12.5 t57 -33t52 -44t49.5 -43.5v-252q0 -37 -1 -97v-11q0 -55 9 -108q10 -58 39 -101t88 -43q20 0 35.5 10t28 22.5t21.5 22.5t20 10q14 0 19 -10t5 -21q0 -33 -15.5 -56.5t-40 -39.5t-53 -24.5t-55.5 -8.5q-104 0 -151 53.5t-63 134.5q-12 64 -12 137q0 19 1 38q4 94 5 175v9 q0 75 -16 125q-16 53 -73 53q-59 0 -115.5 -34.5t-91.5 -79.5q-29 -37 -45 -95.5t-27.5 -125t-19.5 -135t-19.5 -124t-30 -90.5t-48.5 -35q-37 0 -48.5 14.5t-11.5 51.5q0 109 7.5 215.5t7.5 216.5q0 35 1 62.5t-4.5 51t-19.5 45t-43 44.5q-16 10 -33.5 23.5t-38.5 13.5 q-16 0 -30.5 -8.5t-26.5 -14.5q-98 -51 -151.5 -124.5t-79 -152.5t-33.5 -157t-14.5 -139.5t-20.5 -99t-53 -37.5q-35 0 -52.5 10t-26.5 28.5t-10 43t-1 53.5z" />
<glyph unicode="n" horiz-adv-x="995" d="M74 864q4 12 14 21.5t25 9.5q35 0 48 -25.5t19 -57.5t11.5 -57.5t23.5 -25.5t49 22.5t72 50t92 51.5t113 24q109 0 161 -53.5t69 -134.5q15 -72 15 -155v-19q-1 -34 -1 -66q1 -56 3 -108q4 -81 22.5 -134t82.5 -53q47 0 70.5 21.5t33.5 21.5q12 0 18.5 -17.5t6.5 -27.5 q0 -20 -15.5 -44t-37 -45.5t-46 -36t-44.5 -14.5q-66 0 -105 34t-59.5 90.5t-27.5 128t-9 145t-3 145.5t-10.5 128t-31 90t-64.5 34t-87 -21.5t-82 -54.5t-69.5 -73t-49.5 -74q-16 -33 -27.5 -75t-19 -86t-11.5 -88t-6 -81q0 -16 -1 -53t-4.5 -76t-17.5 -67.5t-38 -28.5 q-18 0 -29.5 26.5t-19 68.5t-11.5 91t-6 94t-2 79v46q-4 86 -7 169t-3 169v51t4 49z" />
<glyph unicode="o" horiz-adv-x="972" d="M29 389q0 66 9 130.5t33.5 122.5t67.5 107.5t111 86.5v-5q55 29 117.5 41.5t124.5 12.5q92 0 174 -32t143 -89t97 -136t36 -173q0 -84 -37 -165t-98.5 -145.5t-141 -103.5t-163.5 -39q-76 0 -159 29.5t-153.5 81t-115.5 122t-45 154.5zM150 424q0 -57 29.5 -111.5 t76.5 -97.5t104.5 -68.5t112.5 -25.5q61 0 121.5 33.5t110 87t79 116t29.5 121.5q0 53 -23.5 100.5t-54.5 88.5l6 -2q-25 33 -54.5 55t-72.5 22q-35 0 -70.5 5.5t-68.5 7.5h-10q-77 0 -135 -28q-62 -30 -102 -79t-59 -108.5t-19 -116.5z" />
<glyph unicode="p" horiz-adv-x="1042" d="M123 202.5v96.5v57v106.5t1 131.5t3 129t4 99t6 44q8 10 18.5 18.5t24.5 8.5q25 0 37 -14.5t17.5 -36t4.5 -44t-1 -40.5v-28.5t3 -48.5t7 -45.5t14 -19.5t18.5 18.5t12.5 24.5q20 45 59 87t88 74t104.5 50.5t104.5 18.5q59 0 124 -35t117 -88t86 -116.5t34 -123.5 q0 -86 -45 -179t-117 -170t-161 -126t-177 -49q-49 0 -85 15.5t-63.5 35t-49 34.5t-40.5 15q-6 0 -9 -11t-5 -24.5t-4 -26.5t-2 -15q-4 -68 -5 -135.5t-1 -135.5q0 -14 1 -74v-30q0 -46 -2 -96q-3 -66 -12.5 -118t-29.5 -52q-10 0 -20.5 8t-18.5 16q-10 10 -17.5 73.5 t-11.5 155t-7 198t-4 201.5t-1 166.5zM281 313q0 -33 24.5 -70.5t60 -69.5t75.5 -53.5t73 -21.5q63 0 127 45t114 112t81.5 142.5t31.5 134.5q0 119 -77 203l-3 -4q-27 29 -59.5 46.5t-71.5 17.5q-74 0 -142.5 -50.5t-120.5 -124t-82.5 -156.5t-30.5 -151z" />
<glyph unicode="q" horiz-adv-x="921" d="M31 311q0 174 76.5 296t224.5 204v6q43 25 92 39t98 14q39 0 69 -9t51.5 -21.5t37.5 -21.5t27 -9q10 0 14 6t10 13.5t15.5 13.5t27.5 6q49 0 71.5 -34t22.5 -77q0 -78 -12 -154.5t-18 -152.5q-12 -131 -17.5 -261t-5.5 -261q0 -27 5 -72t9.5 -96t6.5 -106v-22 q0 -41 -6 -75q-7 -43 -25.5 -70.5t-52.5 -27.5l-15 2q-16 4 -24 54t-11 111q-1 43 -1 83v31q1 55 1 67q0 86 -3 181t-9 182q-45 -18 -91 -43t-93 -48.5t-95.5 -39t-97.5 -15.5q-66 0 -118 24.5t-88.5 66.5t-56 98.5t-19.5 117.5zM150 281q0 -25 8 -55.5t24.5 -57.5t40 -45.5 t51.5 -18.5q80 0 160 33t144.5 89.5t105.5 131t41 158.5q0 39 -5 53.5t-12.5 23.5t-12.5 22.5t-5 50.5l-20 41q-25 20 -38.5 33.5t-23.5 19.5t-23.5 8t-37.5 2q-35 0 -80 -15.5t-90 -39t-83 -53t-58 -58.5q-37 -49 -55.5 -96t-24.5 -89t-6 -77v-61z" />
<glyph unicode="r" horiz-adv-x="790" d="M145 315q0 47 2.5 84t2.5 50q0 98 3 195t11 196l18 6q37 0 55.5 -21.5t26.5 -46t12.5 -46t14.5 -21.5q23 0 46 26.5t55 58t75 58.5t104 27q25 0 58 -8.5t63.5 -23.5t51 -39t20.5 -54q0 -16 -19 -17q-14 0 -27 7.5t-29.5 15.5t-35 15t-41.5 7q-80 0 -144.5 -66.5 t-109.5 -159.5t-68.5 -192.5t-23.5 -166.5v-39t-4 -59.5t-13 -54t-28 -23.5q-25 0 -40 27.5t-23 70.5t-10.5 95t-2.5 99z" />
<glyph unicode="s" horiz-adv-x="702" d="M84 160q0 10 19.5 16t29.5 6q16 0 39 -13t51.5 -30.5t63.5 -31t75 -13.5q27 0 57 19.5t55.5 48t43 60.5t17.5 57q0 41 -27 59t-68 28.5t-91 19.5t-96 29.5t-84 59.5t-54 111l-6 -2l-3 22q0 53 31 103.5t77 89.5t101.5 62.5t104.5 23.5q18 0 51 -7.5t64.5 -20.5t55 -31.5 t23.5 -41.5q0 -18 -20.5 -23t-34.5 -5q-47 0 -80 5t-61.5 4t-59 -12.5t-71.5 -43.5q-23 -18 -47.5 -45t-24.5 -60q0 -39 34 -60.5t83 -35.5t108.5 -28.5t108.5 -41t83 -68.5t34 -114q0 -59 -25 -108.5t-67 -85t-95 -56t-108 -20.5q-41 0 -85 12t-84 34.5t-71 54.5t-47 73z " />
<glyph unicode="t" horiz-adv-x="675" d="M61 842q0 31 15.5 44t37 17t43 2t33.5 -2q25 0 36 42q10 41 13 97q2 42 2 82v27q-1 53 -1 76v58t1 88t5 86t12 52l2 -6q10 16 26.5 21.5t32.5 5.5q18 0 26.5 -41t9.5 -93v-51v-49q-1 -48 -1 -57q0 -33 -1 -92v-29q0 -42 2 -84q3 -54 14.5 -90.5t40.5 -21.5q8 4 31.5 1 t48 -10.5t43 -18.5t18.5 -22q0 -16 -15.5 -39.5t-27.5 -21.5q-23 2 -42 2q-45 -1 -70 -13q-36 -18 -48 -50q-10 -26 -9 -57v-15q3 -39 3 -68q0 -24 -1 -70v-24q0 -36 2 -80q3 -58 9 -121t21.5 -114t40 -84t63.5 -33q23 0 44.5 8t42 17.5t41 17.5t44.5 8q18 0 34.5 -7 t16.5 -30t-30.5 -45t-70.5 -38.5t-80 -26.5t-58 -10q-61 0 -103.5 29.5t-71 78.5t-43 110.5t-22.5 124t-9 120t-1 100.5q0 27 3 65q2 23 2 47q0 16 -1 31q-2 39 -16.5 68.5t-46.5 36.5q-10 2 -25.5 5t-30 8t-25 14t-10.5 24z" />
<glyph unicode="u" horiz-adv-x="972" d="M51 561q0 16 1 65.5t8.5 101.5t21.5 93t39 41t38 -16.5t19 -38t7 -45t1 -37.5q0 -33 -4 -93q-4 -58 -6 -128q-1 -20 -1 -40q0 -50 4 -102q5 -72 21.5 -129t49.5 -94t88 -37q18 0 36.5 7.5t35.5 15.5q78 39 118.5 102.5t58 137t18.5 151.5q0 39 0.5 75.5t-0.5 70.5v21 q0 54 4 95q5 49 32 68q4 4 16.5 11t20.5 7q23 0 34 -46t15 -103.5t4.5 -110.5t0.5 -65q0 -35 -2 -99v-13q0 -57 8 -115q10 -64 35.5 -111t80.5 -47q29 0 57.5 5t57.5 5q8 0 24.5 -2t16.5 -17q0 -18 -19.5 -37.5t-45 -36t-53.5 -27.5t-44 -11q-33 0 -60.5 13t-50 34.5 t-43 47.5t-39.5 48q-33 -27 -66.5 -52.5t-69.5 -46t-76 -33.5t-83 -13q-106 0 -167.5 54t-93 134t-40 172t-8.5 170z" />
<glyph unicode="v" horiz-adv-x="937" d="M18 850q25 20 58 20t66.5 -44t68.5 -111.5t67.5 -144t64.5 -144.5t59.5 -112t50.5 -44q29 0 57.5 44t58 112t61.5 144.5t65.5 144t70.5 111.5t78 44q23 0 41 -8t18 -35q0 -4 -25.5 -65.5t-66.5 -149.5t-90 -190.5t-96 -189.5t-87 -144t-61 -57q-12 0 -37.5 31.5 t-57.5 78.5t-63.5 105.5t-59.5 112t-45 94.5t-17 57l-13 -6q-2 16 -27.5 65t-56 105.5t-56.5 106.5t-26 69z" />
<glyph unicode="w" horiz-adv-x="1173" d="M23 809v20.5t3 27.5t9 24.5t16 11.5q18 0 38 -36t38 -92t34.5 -123t29 -128t19.5 -108.5t7 -63.5q0 -14 5 -36.5t26 -22.5q18 0 39.5 44t43 108.5t43 141t45 141t46 108.5t47.5 44q29 0 54.5 -45t49 -113.5t46 -148.5t43 -148.5t41 -113.5t40.5 -45q23 0 46.5 45 t47 113.5t48 147.5t51.5 147.5t55.5 113.5t59.5 45q20 0 35.5 -8t15.5 -31q0 -18 -18.5 -83.5t-48 -153.5t-66.5 -185.5t-74 -179.5t-69.5 -135t-53.5 -53q-25 0 -50.5 28.5t-52 73.5t-52 100.5t-50 108.5t-48 98.5t-44.5 69.5l-53 -82q-10 -14 -25.5 -50t-34 -80t-39 -91 t-40 -86t-38 -63.5t-30.5 -24.5q-23 0 -46.5 20.5t-42.5 50t-31.5 60.5t-12.5 51l-4 -4q0 61 -15.5 137t-34 156t-33.5 156.5t-15 140.5z" />
<glyph unicode="x" horiz-adv-x="741" d="M29 61q0 23 17 59t45 79t58.5 87t58.5 83t45 67.5t17 40.5q0 20 -29.5 64.5t-64.5 96.5t-64.5 105.5t-29.5 92.5q0 6 3 21t13 15q41 0 75 -39.5t61.5 -88t50 -88.5t41.5 -40q31 0 61.5 39t62 85t64.5 85t64 39q20 0 42.5 -9t22.5 -34q0 -12 -14.5 -37.5t-36 -58.5 t-47 -71t-47 -73.5t-35.5 -67.5t-14 -52q0 -43 40.5 -102.5t89 -120t89.5 -112.5t41 -83q0 -10 -14.5 -18.5t-24.5 -8.5q-37 0 -86 49.5t-95.5 108.5t-85 108.5t-55.5 49.5q-10 0 -30.5 -23.5t-45 -58.5t-53.5 -77t-57.5 -77t-56 -58.5t-50.5 -23.5q-16 0 -21 16.5t-5 30.5z " />
<glyph unicode="y" horiz-adv-x="937" d="M31 840q0 16 10 28.5t27 12.5q25 0 59.5 -49.5t73.5 -123t81 -159.5t77.5 -160t63.5 -123t42 -49q20 0 55 48t76 120t85 157t84 156.5t69.5 119.5t42.5 48q23 0 29.5 -22.5t6.5 -40.5q0 -37 -32.5 -118t-84 -186.5t-113.5 -224t-122.5 -232.5t-111 -212t-76.5 -162 q-6 -14 -19.5 -46t-31 -64.5t-38 -57t-38.5 -24.5q-25 0 -31 23.5t-6 41.5q0 76 30.5 154t66.5 146.5t66.5 123.5t30.5 84q0 43 -29.5 103.5t-65.5 120t-65.5 110.5t-29.5 74q0 18 -17.5 51t-39 68.5t-40 71.5t-22.5 63q-4 20 -14 38.5t-20.5 34t-19.5 28.5t-9 28z" />
<glyph unicode="z" horiz-adv-x="987" d="M29 838q0 25 55 35t126 11h35q53 0 101 -2q64 -3 84 -3q34 0 96 4q35 2 72 2q26 0 54 -1q64 -3 117.5 -16.5t72.5 -48.5q0 -14 -22.5 -30.5t-33.5 -24.5q-20 -16 -62 -60.5t-93 -104.5t-105.5 -126.5t-98.5 -127t-72.5 -109t-28.5 -66.5q0 -10 18 -15t41 -8.5t44.5 -4.5 t25.5 -1q57 -4 88.5 -5t58.5 -2t58.5 -2t89.5 -1q12 0 43.5 -1t65.5 -7t60.5 -17.5t26.5 -29.5q0 -35 -45 -51.5t-103 -21.5q-49 -4 -96 -4h-19q-56 1 -79 1h-54t-92 2t-109.5 4t-108 7t-85 11.5t-40.5 16.5q-16 27 -17 49q0 33 10.5 53.5t24.5 36t31.5 29.5t30.5 37 q0 16 28.5 55t70.5 89t91 105.5t91 104.5t69.5 85t27.5 50v6q-41 8 -81.5 11.5t-81.5 3.5q-34 0 -98 -6q-41 -4 -83 -5q-21 -1 -43 1q-62 4 -109.5 22.5t-47.5 69.5z" />
<glyph unicode="{" />
<glyph unicode="|" />
<glyph unicode="}" />
<glyph unicode="~" />
<glyph unicode="&#xa2;" />
<glyph unicode="&#xa3;" />
<glyph unicode="&#xa7;" />
<glyph unicode="&#xa8;" horiz-adv-x="761" d="M135 1480.5v43.5q0 33 7.5 65.5t29.5 57.5v2q16 16 38.5 33.5t47.5 17.5q29 0 29 -33q0 -27 -2 -77t-12.5 -99t-31 -86t-55.5 -37q-23 0 -33 18.5t-14 43t-4 51zM483 1472.5v43.5q0 35 7.5 70.5t31.5 62.5v4q16 16 38 32.5t46 16.5q29 0 29 -33q0 -27 -2 -79t-12.5 -104 t-31 -91t-54.5 -39q-23 0 -33 19.5t-14.5 45t-4.5 52z" />
<glyph unicode="&#xab;" horiz-adv-x="761" d="M135 1480.5v43.5q0 33 7.5 65.5t29.5 57.5v2q16 16 38.5 33.5t47.5 17.5q29 0 29 -33q0 -27 -2 -77t-12.5 -99t-31 -86t-55.5 -37q-23 0 -33 18.5t-14 43t-4 51zM483 1472.5v43.5q0 35 7.5 70.5t31.5 62.5v4q16 16 38 32.5t46 16.5q29 0 29 -33q0 -27 -2 -79t-12.5 -104 t-31 -91t-54.5 -39q-23 0 -33 19.5t-14.5 45t-4.5 52z" />
<glyph unicode="&#xad;" horiz-adv-x="1294" d="M229 723q0 14 7.5 26.5t13.5 24.5q16 12 28.5 26.5t34.5 16.5q86 8 173 18.5t173 10.5q39 0 78 -4t78 -4q27 0 52.5 6t52.5 6q4 0 17 -5t17 -7q10 -20 15.5 -42t17.5 -40q-4 -12 -9 -24.5t-15 -20.5q-2 -10 -17.5 -18.5t-35 -14.5t-39 -9t-27.5 -3q-23 0 -41.5 6t-40.5 4 q-29 -2 -58.5 -6t-60.5 -4q-29 0 -73 1t-72 9q-39 -10 -78 -12t-80 -2q-18 0 -37.5 2t-38.5 -2l-24 18l-9 14z" />
<glyph unicode="&#xb4;" horiz-adv-x="497" d="M135 1480.5v43.5q0 33 7.5 65.5t29.5 57.5v2q16 16 38.5 33.5t47.5 17.5q29 0 29 -33q0 -27 -2 -77t-12.5 -99t-31 -86t-55.5 -37q-23 0 -33 18.5t-14 43t-4 51z" />
<glyph unicode="&#xb7;" horiz-adv-x="653" d="M211 811q0 23 8 33t33 10q18 0 42.5 -4t48.5 -13.5t39 -24.5t15 -40q0 -29 -22.5 -48t-46.5 -30q-16 0 -36 12.5t-38 30t-30.5 38t-12.5 36.5z" />
<glyph unicode="&#xbb;" horiz-adv-x="761" d="M145 -10q0 33 8.5 65.5t30.5 59.5v2q16 16 39 33.5t47 17.5q29 0 29 -33q0 -25 -3 -75t-13.5 -100t-31 -87t-54.5 -37q-23 0 -33 18.5t-14.5 43t-4.5 50v42.5zM496 -14q0 35 7 69.5t29 61.5v4q16 16 39 32.5t47 16.5q29 0 29 -33q0 -27 -2 -79t-12 -104t-30.5 -91 t-55.5 -39q-23 0 -33 19.5t-14 46t-4 53v43.5z" />
<glyph unicode="&#xbf;" />
<glyph unicode="&#xc0;" />
<glyph unicode="&#xc1;" />
<glyph unicode="&#xc2;" />
<glyph unicode="&#xc4;" horiz-adv-x="1118" d="M27 68q0 59 14 117.5t33.5 116.5t39 116.5t27.5 118.5q6 41 20.5 81.5t30 80.5t27.5 80t12 81h7q2 31 16 91.5t36.5 134t50.5 154.5t54.5 152.5t51 129t42.5 84.5q31 0 63 -41t61.5 -104.5t56 -140.5t50 -149.5t41 -132t27.5 -86.5t26.5 -71.5t16.5 -71.5 q0 -18 15.5 -37.5t35 -49.5t38 -72t22.5 -103t28.5 -132t51.5 -136.5t48.5 -121t21.5 -81.5q0 -23 -12.5 -41.5t-37.5 -18.5q-39 0 -72.5 50.5t-61 117t-46 133t-24.5 97.5q-18 78 -54 105.5t-114 27.5q-23 0 -76 -1t-111.5 -3t-107.5 -6.5t-62 -10.5q-23 -14 -39 -57 t-30.5 -99.5t-29.5 -119t-34.5 -113.5t-48.5 -85t-70 -34q-23 0 -28.5 16.5t-5.5 33.5zM195 1774q0 4 5 13t3 13l26 23q8 0 23.5 -6.5t30 -16.5t25.5 -21.5t11 -19.5q0 -20 -22.5 -25t-36.5 -5q-20 0 -42.5 10t-22.5 35zM334 711q0 -37 15.5 -50.5t49.5 -13.5q25 0 80.5 2 t112.5 11.5t101 28t44 50.5q0 35 -14 66t-30.5 61.5t-31 61t-16.5 65.5h2q-2 16 -18.5 64.5t-37 99.5t-40 91t-25.5 40q-12 0 -24.5 -21.5t-22.5 -49t-17 -55t-7 -38.5q0 -53 -18.5 -103t-42 -101.5t-42 -102.5t-18.5 -106zM752 1790q0 16 15 23.5t30 7.5q10 0 24.5 -5.5 t26.5 -14.5t21.5 -20.5t9.5 -23.5q0 -8 -19.5 -16t-28.5 -8q-23 0 -51 16t-28 41z" />
<glyph unicode="&#xc7;" />
<glyph unicode="&#xc8;" />
<glyph unicode="&#xc9;" />
<glyph unicode="&#xca;" />
<glyph unicode="&#xcb;" />
<glyph unicode="&#xce;" />
<glyph unicode="&#xcf;" />
<glyph unicode="&#xd1;" />
<glyph unicode="&#xd3;" />
<glyph unicode="&#xd4;" />
<glyph unicode="&#xd6;" horiz-adv-x="1308" d="M29 713q0 72 8 144.5t22 143.5q4 18 20.5 63.5t40 102t52.5 116.5t57.5 110.5t54 84t44.5 35.5l-2 7q25 2 42 19t42.5 37.5t66.5 38t115 17.5q82 0 158.5 -29.5t154.5 -54.5q82 -27 151.5 -111.5t119 -191t77 -217t27.5 -190.5q0 -137 -46 -284.5t-133 -270.5t-210 -203 t-277 -80q-152 0 -261 61.5t-182 162t-107.5 228.5t-34.5 261zM172 760q0 -102 20.5 -215t70.5 -208t133 -157.5t210 -62.5q10 0 21.5 1t21.5 3q53 8 108.5 40t104.5 75t90 93t68 95q25 45 43 101.5t30.5 116.5t17.5 119.5t5 110.5q0 100 -15.5 175t-48 135.5t-86 115 t-128.5 113.5q-18 14 -43 32.5t-51.5 36t-55.5 29t-53 11.5q-70 0 -130.5 -41t-112.5 -106.5t-93 -148.5t-68.5 -168t-43 -163t-15.5 -133zM295 1870q0 4 4 11t2 11q14 25 45 25q35 0 62.5 -27.5t27.5 -62.5q0 -23 -24 -23q-10 0 -30 5.5t-39 14.5t-33.5 20.5t-14.5 25.5z M872 1876q0 10 16.5 23.5t26.5 13.5q14 0 26.5 -10.5t23 -23.5t16.5 -29.5t6 -28.5q0 -25 -20 -25q-12 0 -28.5 7t-31 18.5t-25 26t-10.5 28.5z" />
<glyph unicode="&#xd9;" />
<glyph unicode="&#xda;" />
<glyph unicode="&#xdb;" />
<glyph unicode="&#xdc;" horiz-adv-x="1230" d="M29 1114.5q2 145.5 2 259.5q0 14 -2 44t1 59.5t13 52t33 22.5q20 0 31.5 -9t15.5 -23.5t5 -32t3 -31.5q4 -66 7 -157t8.5 -195.5t12.5 -215t20.5 -212t36 -187.5t56.5 -143q33 -55 68 -100t76 -77t92 -49.5t121 -17.5q53 0 115.5 26t118 67t94 95t42.5 111h2q0 10 9.5 35 t20.5 53.5t21.5 57t14.5 47.5q23 139 27 281.5t4 283.5q0 209 18 416q10 10 33 10q33 0 45 -52t14 -118.5t-1 -129t-3 -83.5q0 -104 1 -234t-10 -262.5t-42 -258t-94.5 -224t-168 -158t-261.5 -59.5q-168 0 -277.5 69.5t-176 183.5t-97.5 259.5t-41 298t-8 298zM266 1847 l4 4q0 14 7.5 24.5t23.5 10.5q27 0 60.5 -23.5t50.5 -43.5q0 -6 -9.5 -11.5t-21.5 -8.5t-24.5 -5t-18.5 -2q-25 0 -48.5 13.5t-23.5 41.5zM743 1845l5 2q0 35 30 35q27 0 61.5 -22.5t49.5 -42.5q0 -6 -10.5 -11.5t-22.5 -8.5t-24.5 -5t-16.5 -2q-25 0 -48.5 13.5t-23.5 41.5 z" />
<glyph unicode="&#xdf;" horiz-adv-x="1048" d="M25 -436q2 45 2 57q0 147 2 294.5t4 295.5v179.5t2 220t9 239.5t21.5 237.5t38 213t60.5 165.5q35 68 90 121t119 96h2q29 20 60.5 27.5t64.5 7.5q76 0 135 -30.5t100 -82t63.5 -118t22.5 -135.5q0 -68 -19.5 -115t-46 -88t-55 -82t-47.5 -94q37 -20 73 -33.5t72 -28 t70.5 -32t69.5 -48.5l82 -73q0 -49 3 -122t1 -148.5t-14.5 -146.5t-40.5 -118q-66 -102 -168.5 -159.5t-225.5 -57.5q-29 0 -82 11.5t-107 33t-94 51t-40 66.5q4 8 12 14t19 6q35 0 61.5 -14t52 -32.5t53 -33t62.5 -14.5q33 0 63.5 9.5t59.5 21.5q88 37 133 94t63.5 130 t18.5 155v166q0 76 -20.5 111.5t-53.5 48t-76 9.5t-86 -4t-85 7t-74 43l-22.5 22.5t-12.5 28.5q0 27 36 64.5t77.5 90t77.5 120t36 155.5v66.5t-7 93.5t-24.5 83t-52.5 36q-23 0 -53.5 -19.5t-48.5 -30.5q-59 -35 -100.5 -85t-69 -108.5t-44 -124t-24.5 -128.5 q-31 -248 -46 -492.5t-15 -494.5l2 -815h-92q-23 0 -33 37.5t-13 86t-1 93.5z" />
<glyph unicode="&#xe0;" />
<glyph unicode="&#xe1;" />
<glyph unicode="&#xe2;" />
<glyph unicode="&#xe4;" horiz-adv-x="972" d="M28 250q1 35 1 84q0 47 1 84t7 71.5t19.5 68.5t37.5 75q31 51 74 98t95 83t111.5 57.5t121.5 21.5q31 0 64.5 -16.5t66 -38t62.5 -46t52 -38.5q0 -23 -4 -78t-5 -124t3 -143.5t19.5 -135t46 -100.5t82.5 -40q37 0 59.5 19.5t38.5 19.5t26.5 -13.5t14.5 -27.5 q0 -16 -18.5 -36.5t-44 -39t-52 -32t-45.5 -13.5q-35 0 -66.5 20.5t-60 45t-53.5 45t-43 20.5q-4 0 -36 -21.5t-82 -46t-111.5 -46t-122.5 -21.5q-51 0 -92 18.5t-80 51.5t-57.5 58.5t-24.5 53t-5 62.5zM104 1169h5q0 12 9 16.5t19 4.5t27.5 -5t35 -13.5t31 -19.5t13.5 -24 q0 -16 -17.5 -22t-29.5 -6t-28.5 6t-30 15t-24 21.5t-10.5 26.5zM141 311q0 -33 4.5 -67.5t17.5 -63t39.5 -47t69.5 -18.5q29 0 61 9t60 19q70 23 115 58t70.5 82t35 105t9.5 130q0 31 -5.5 75t-18.5 85t-38.5 69.5t-68.5 28.5q-76 0 -139.5 -48t-110.5 -118.5t-74 -151.5 t-27 -147zM639 1161q0 10 6 17l2 -4q8 10 19.5 12t21.5 2q25 0 41 -19.5t16 -42.5q0 -12 -7 -21t-21 -9q-23 0 -50.5 20.5t-27.5 44.5z" />
<glyph unicode="&#xe7;" />
<glyph unicode="&#xe8;" />
<glyph unicode="&#xe9;" />
<glyph unicode="&#xea;" />
<glyph unicode="&#xeb;" />
<glyph unicode="&#xee;" />
<glyph unicode="&#xef;" />
<glyph unicode="&#xf3;" />
<glyph unicode="&#xf4;" />
<glyph unicode="&#xf6;" horiz-adv-x="966" d="M29 252v186v76t5 65.5t18.5 60.5t41.5 62h6q72 86 177.5 123t216.5 37q43 0 98 -5t94 -26q45 -23 90 -66.5t82 -99t60.5 -114.5t23.5 -111q0 -102 -40 -182t-106.5 -137.5t-154.5 -87t-182 -29.5q-80 0 -137.5 18.5t-105.5 51t-91 79t-96 99.5zM115 1255q14 14 32 15 q16 0 36 -5t36.5 -15.5t27.5 -26t11 -35.5t-14.5 -28.5t-30.5 -8.5t-31.5 11.5t-30 26.5t-22.5 33.5t-8 32.5h-6zM156 434q0 -154 83 -231.5t230 -77.5q63 0 123.5 29.5t106.5 77t74 109t28 124.5q0 72 -32 136.5t-62 125.5h-185h-91t-64.5 -7t-55 -27.5t-65.5 -63.5 q-23 -25 -40.5 -45.5t-28.5 -42t-16 -47t-5 -60.5zM592 1255q0 16 14.5 24.5t28.5 8.5q16 0 34.5 -10t34 -25.5t25.5 -33t10 -33.5q0 -18 -14 -27.5t-31 -9.5q-14 0 -32.5 11t-34 27.5t-25.5 35t-10 32.5z" />
<glyph unicode="&#xf9;" />
<glyph unicode="&#xfa;" />
<glyph unicode="&#xfb;" />
<glyph unicode="&#xfc;" horiz-adv-x="960" d="M49 512l10 -6q0 25 -5 83t-3 119.5t14.5 107.5t45.5 46q31 0 43 -56t17 -141t7 -183.5t14.5 -183.5t40 -141.5t82.5 -56.5q20 0 55.5 18.5t70 43t63 51.5t39.5 45q14 25 21 79t12.5 121.5t11.5 139.5t17 131t30.5 97t50.5 38q25 0 43.5 -13t18.5 -38q0 -66 -12.5 -134.5 t-12.5 -135.5q0 -29 3 -94.5t15.5 -131t37 -115.5t69.5 -50q29 0 51.5 17t50.5 17q14 0 24.5 -8t10.5 -24q0 -18 -14.5 -38t-33.5 -37.5t-43 -27.5t-42 -10q-43 0 -76 20.5t-58.5 44t-45 44t-31.5 20.5q-14 0 -43 -22.5t-66.5 -49t-83 -49t-92.5 -22.5q-31 0 -63.5 12 t-64 31.5t-59.5 43t-48 44.5q-31 33 -45.5 77t-19.5 91t-5 96t-2 90zM78 1223q0 8 4 15t2 13q4 4 12 11.5t15 7.5q41 0 72.5 -34t31.5 -75q0 -29 -16 -45l-21 -8q-16 0 -34.5 12.5t-33 29.5t-23.5 37t-9 36zM586 1225q4 6 10 12t16 6q14 0 35 -7t39.5 -18.5t30.5 -26.5 t12 -34q0 -16 -14.5 -35.5t-30.5 -19.5q-10 0 -26.5 15.5t-33 36t-27.5 42t-11 31.5v-2z" />
<glyph unicode="&#x2000;" horiz-adv-x="958" />
<glyph unicode="&#x2001;" horiz-adv-x="1917" />
<glyph unicode="&#x2002;" horiz-adv-x="958" />
<glyph unicode="&#x2003;" horiz-adv-x="1917" />
<glyph unicode="&#x2004;" horiz-adv-x="639" />
<glyph unicode="&#x2005;" horiz-adv-x="479" />
<glyph unicode="&#x2006;" horiz-adv-x="319" />
<glyph unicode="&#x2007;" horiz-adv-x="319" />
<glyph unicode="&#x2008;" horiz-adv-x="239" />
<glyph unicode="&#x2009;" horiz-adv-x="383" />
<glyph unicode="&#x200a;" horiz-adv-x="106" />
<glyph unicode="&#x2010;" horiz-adv-x="1294" d="M229 723q0 14 7.5 26.5t13.5 24.5q16 12 28.5 26.5t34.5 16.5q86 8 173 18.5t173 10.5q39 0 78 -4t78 -4q27 0 52.5 6t52.5 6q4 0 17 -5t17 -7q10 -20 15.5 -42t17.5 -40q-4 -12 -9 -24.5t-15 -20.5q-2 -10 -17.5 -18.5t-35 -14.5t-39 -9t-27.5 -3q-23 0 -41.5 6t-40.5 4 q-29 -2 -58.5 -6t-60.5 -4q-29 0 -73 1t-72 9q-39 -10 -78 -12t-80 -2q-18 0 -37.5 2t-38.5 -2l-24 18l-9 14z" />
<glyph unicode="&#x2011;" horiz-adv-x="1294" d="M229 723q0 14 7.5 26.5t13.5 24.5q16 12 28.5 26.5t34.5 16.5q86 8 173 18.5t173 10.5q39 0 78 -4t78 -4q27 0 52.5 6t52.5 6q4 0 17 -5t17 -7q10 -20 15.5 -42t17.5 -40q-4 -12 -9 -24.5t-15 -20.5q-2 -10 -17.5 -18.5t-35 -14.5t-39 -9t-27.5 -3q-23 0 -41.5 6t-40.5 4 q-29 -2 -58.5 -6t-60.5 -4q-29 0 -73 1t-72 9q-39 -10 -78 -12t-80 -2q-18 0 -37.5 2t-38.5 -2l-24 18l-9 14z" />
<glyph unicode="&#x2012;" horiz-adv-x="1294" d="M229 723q0 14 7.5 26.5t13.5 24.5q16 12 28.5 26.5t34.5 16.5q86 8 173 18.5t173 10.5q39 0 78 -4t78 -4q27 0 52.5 6t52.5 6q4 0 17 -5t17 -7q10 -20 15.5 -42t17.5 -40q-4 -12 -9 -24.5t-15 -20.5q-2 -10 -17.5 -18.5t-35 -14.5t-39 -9t-27.5 -3q-23 0 -41.5 6t-40.5 4 q-29 -2 -58.5 -6t-60.5 -4q-29 0 -73 1t-72 9q-39 -10 -78 -12t-80 -2q-18 0 -37.5 2t-38.5 -2l-24 18l-9 14z" />
<glyph unicode="&#x2013;" horiz-adv-x="1355" d="M115 737q0 8 8 25.5t12 25.5q20 14 28.5 24.5t16.5 14.5t23.5 6.5t50.5 2.5q145 0 287.5 5t287.5 5q49 0 99.5 -4t99.5 -4q27 0 52.5 6t52.5 6q8 0 19 -4t17 -8q6 -12 8.5 -17.5t2.5 -17.5q6 -10 9 -23.5t11 -23.5l-9 -22.5t-13 -22.5q-2 -10 -18.5 -18.5t-37 -14.5 t-39 -9t-26.5 -3q-20 0 -41 6t-41 4q-59 -6 -116.5 -8t-117.5 -2h-43.5t-68.5 2t-69 3t-42 5q-76 -18 -159 -7t-160 11q-12 0 -24.5 -1t-24.5 -3l-25 18l-8 15z" />
<glyph unicode="&#x2014;" horiz-adv-x="1581" d="M111 737q4 12 9 25.5t11 25.5q20 14 29.5 24.5t17.5 14.5t23.5 6.5t50.5 2.5q201 0 398.5 5t396.5 5q59 0 116.5 -4t116.5 -4q27 0 52.5 6t51.5 6q8 0 19.5 -4t17.5 -8q6 -12 8.5 -17.5t2.5 -17.5q6 -10 9 -23.5t11 -23.5l-9 -22.5t-13 -22.5q-2 -10 -18.5 -18.5 t-37 -14.5t-39 -9t-26.5 -3q-20 0 -41 6t-41 4q-82 -8 -163 -9t-161 -1q-72 0 -142.5 5t-142.5 5q-104 0 -210.5 2t-210.5 2q-12 0 -25.5 -1t-26.5 -3l-22 18q-12 20 -12 43z" />
<glyph unicode="&#x201a;" horiz-adv-x="557" d="M176 -141q0 25 13.5 59.5t33 70.5t41 66.5t37.5 48.5v5q16 16 37.5 32.5t48.5 16.5q29 0 29 -33q0 -27 -18.5 -79t-48.5 -105.5t-63.5 -93.5t-64.5 -40q-23 0 -34 14.5t-11 37.5z" />
<glyph unicode="&#x201c;" />
<glyph unicode="&#x201d;" horiz-adv-x="761" d="M135 1480.5v43.5q0 33 7.5 65.5t29.5 57.5v2q16 16 38.5 33.5t47.5 17.5q29 0 29 -33q0 -27 -2 -77t-12.5 -99t-31 -86t-55.5 -37q-23 0 -33 18.5t-14 43t-4 51zM483 1472.5v43.5q0 35 7.5 70.5t31.5 62.5v4q16 16 38 32.5t46 16.5q29 0 29 -33q0 -27 -2 -79t-12.5 -104 t-31 -91t-54.5 -39q-23 0 -33 19.5t-14.5 45t-4.5 52z" />
<glyph unicode="&#x201e;" />
<glyph unicode="&#x2022;" horiz-adv-x="1333" d="M383 735q0 61 22.5 113.5t62.5 91.5t92 61.5t114 22.5q61 0 114.5 -22.5t91.5 -60.5t60.5 -91.5t22.5 -114.5t-22.5 -113.5t-61.5 -92.5t-91.5 -62.5t-113.5 -22.5q-59 0 -112.5 22.5t-93.5 62.5t-62.5 93.5t-22.5 112.5z" />
<glyph unicode="&#x202f;" horiz-adv-x="383" />
<glyph unicode="&#x205f;" horiz-adv-x="479" />
<glyph unicode="&#x20ac;" />
<glyph unicode="&#xe000;" horiz-adv-x="870" d="M0 0v870h870v-870h-870z" />
</font>
</defs>
</svg>
